<?xml version="1.0" standalone="no"?>
<!DOCTYPE svg PUBLIC "-//W3C//DTD SVG 1.1//EN" "https://www.w3.org/Graphics/SVG/1.1/DTD/svg11.dtd" >
<svg xmlns="https://www.w3.org/2000/svg">
<metadata>Generated by IcoMoon</metadata>
<defs>
<font id="Pe-icon-line" horiz-adv-x="512">
<font-face units-per-em="512" ascent="480" descent="-32" />
<missing-glyph horiz-adv-x="512" />
<glyph unicode="&#x20;" d="" horiz-adv-x="256" />
<glyph unicode="&#xe600;" d="M256 475.123c-138.69 0-251.123-112.425-251.123-251.123 0-138.681 112.433-251.123 251.123-251.123 138.689 0 251.123 112.442 251.123 251.123 0 138.698-112.434 251.123-251.123 251.123zM475.104 239.726h-90.914c-1.372 38.104-7.671 73.74-17.78 104.747 17.366 8.537 33.598 18.99 48.419 31.13 34.295-35.912 56.543-83.35 60.275-135.877zM271.695 441.465c30.363-8.645 57.262-41.89 75.004-88.669-23.343-9.794-48.58-15.925-75.004-17.672v106.341zM311.102 436.744c34.9-9.058 66.459-26.486 92.393-50.013-13.066-10.53-27.259-19.727-42.396-27.314-12.706 33.031-29.903 59.823-49.997 77.327zM240.305 441.465v-106.341c-26.424 1.747-51.661 7.848-74.997 17.641 17.734 46.78 44.626 80.040 74.997 88.7zM150.923 359.432c-15.136 7.603-29.374 16.738-42.449 27.283 25.95 23.543 57.539 40.986 92.47 50.028-20.102-17.488-37.314-44.28-50.021-77.311zM240.305 319.382v-79.656h-96.77c1.357 35.499 7.25 68.958 16.562 98.126 24.953-10.346 51.952-16.722 80.208-18.47zM240.305 208.335v-85.327c-27.635-1.701-54.044-7.878-78.537-17.81-10.269 30.333-16.799 65.6-18.232 103.137h96.769zM240.305 107.267v-100.654c-29.291 8.353-55.348 39.59-73.081 83.794 22.807 9.319 47.385 15.159 73.081 16.86zM201.051 11.226c-33.475 8.661-63.854 25.061-89.175 47.132 12.668 9.84 26.348 18.439 40.878 25.566 12.531-30.946 29.107-56.037 48.297-72.698zM271.695 6.597v100.67c25.704-1.701 50.289-7.51 73.096-16.845-17.733-44.219-43.798-75.471-73.096-83.825zM359.245 83.893c14.531-7.142 28.241-15.68 40.901-25.52-25.32-22.071-55.684-38.472-89.159-47.132 19.167 16.646 35.735 41.737 48.258 72.652zM271.695 123.008v85.327h96.777c-1.441-37.537-7.962-72.805-18.224-103.122-24.494 9.948-50.917 16.078-78.553 17.795zM271.695 239.726v79.656c28.263 1.763 55.247 8.169 80.208 18.516 9.311-29.183 15.212-62.658 16.569-98.172h-96.777zM97.147 375.587c14.837-12.139 31.084-22.592 48.45-31.13-10.101-31.007-16.408-66.628-17.78-104.732h-90.922c3.732 52.512 25.98 99.951 60.252 135.862zM36.888 208.335h90.929c1.441-40.096 8.369-77.449 19.42-109.575-16.822-8.108-32.586-18.024-47.071-29.505-36.019 36.28-59.446 85.006-63.278 139.080zM411.817 69.24c-14.469 11.48-30.241 21.382-47.047 29.49 11.051 32.141 17.972 69.494 19.42 109.606h90.922c-3.832-54.075-27.267-102.816-63.295-139.096z" />
<glyph unicode="&#xe601;" d="M445.097 373.812c-6.131 6.127-16.062 6.127-22.194 0-6.131-6.127-6.131-16.067 0-22.195 70.376-70.383 70.376-184.893 0-255.261-6.131-6.131-6.131-16.071 0-22.194 3.065-3.066 7.081-4.599 11.097-4.599 4.016 0 8.031 1.533 11.096 4.599 82.616 82.606 82.616 217.035 0.001 299.65zM400.702 329.42c-6.131 6.131-16.063 6.131-22.194 0-6.131-6.127-6.131-16.066 0-22.19 45.898-45.905 45.898-120.588 0.008-166.486-6.131-6.131-6.131-16.062 0-22.194 3.065-3.065 7.081-4.598 11.096-4.598 4.016 0 8.032 1.533 11.097 4.598 58.137 58.136 58.129 152.737-0.007 210.87zM356.306 285.028c-6.131 6.123-16.063 6.123-22.195-0.008-6.131-6.131-6.131-16.063 0-22.194 21.42-21.412 21.42-56.267 0.008-77.694-6.131-6.131-6.131-16.063 0-22.194 3.066-3.066 7.082-4.599 11.097-4.599 4.016 0 8.031 1.533 11.097 4.599 33.659 33.659 33.652 88.431-0.007 122.090zM301.35 473.899c-1.954 0.82-4.016 1.222-6.061 1.222-4.031 0-8.008-1.551-11.005-4.49l-139.419-136.767h-92.838c-26.002 0-47.086-21.083-47.086-47.082v-125.562c0-26.010 21.083-47.086 47.086-47.086h95.673l136.467-136.659c3.004-3.004 7.020-4.598 11.104-4.598 2.023 0 4.062 0.383 6.001 1.188 5.87 2.429 9.694 8.154 9.694 14.507v470.854c0.002 6.323-3.792 12.024-9.616 14.473zM114.808 302.478v-156.952h-31.39v156.952h31.39zM36.332 161.221v125.562c0 8.645 7.043 15.695 15.695 15.695h15.695v-156.952h-15.695c-8.652 0-15.695 7.035-15.695 15.695zM279.577 26.494l-109.667 109.82c-5.886 5.901-13.878 9.212-22.209 9.212h-17.197v156.952h14.362c8.223 0 16.117 3.219 21.98 8.982l112.731 110.582v-395.548z" />
<glyph unicode="&#xe602;" d="M256 475.123c-138.698 0-251.123-112.433-251.123-251.123 0-138.689 112.425-251.123 251.123-251.123 138.697 0 251.123 112.434 251.123 251.123 0 138.69-112.426 251.123-251.123 251.123zM256 4.267c-121.163 0-219.733 98.571-219.733 219.733 0 121.163 98.57 219.733 219.733 219.733 121.162 0 219.733-98.57 219.733-219.733 0-121.162-98.571-219.733-219.733-219.733zM256.015 396.647c4.337 0 7.848 3.518 7.848 7.848s-3.51 7.848-7.848 7.848c-103.858-0.001-188.342-84.493-188.342-188.343 0-4.33 3.51-7.848 7.848-7.848 4.337 0 7.848 3.518 7.848 7.848-0.001 95.198 77.447 172.647 172.646 172.647zM436.51 231.848c-4.337 0-7.848-3.517-7.848-7.848 0-95.198-77.449-172.647-172.647-172.647-4.337 0-7.848-3.517-7.848-7.848 0-4.329 3.51-7.848 7.848-7.848 103.843 0 188.342 84.492 188.342 188.342 0 4.331-3.51 7.849-7.847 7.849zM256.015 365.257c4.337 0 7.848 3.518 7.848 7.848s-3.51 7.848-7.848 7.848c-86.554 0-156.952-70.406-156.952-156.952 0-4.33 3.51-7.848 7.848-7.848 4.337 0 7.848 3.518 7.848 7.848-0.001 77.885 63.362 141.256 141.256 141.256zM256.015 82.743c-4.337 0-7.848-3.517-7.848-7.848 0-4.33 3.51-7.848 7.848-7.848 86.538 0 156.952 70.406 156.952 156.952 0 4.33-3.51 7.848-7.848 7.848-4.337 0-7.848-3.517-7.848-7.848 0.001-77.885-63.378-141.256-141.256-141.256zM256.015 333.866c4.337 0 7.848 3.518 7.848 7.848s-3.51 7.848-7.848 7.848c-69.234 0-125.562-56.328-125.562-125.562 0-4.33 3.51-7.848 7.848-7.848 4.337 0 7.848 3.518 7.848 7.848 0 60.582 49.293 109.866 109.866 109.866zM256.015 114.134c-4.337 0-7.848-3.517-7.848-7.848 0-4.33 3.51-7.848 7.848-7.848 69.234 0 125.562 56.329 125.562 125.562 0 4.33-3.51 7.848-7.848 7.848s-7.848-3.517-7.848-7.848c0-60.581-49.292-109.866-109.866-109.866zM256.015 302.476c4.337 0 7.848 3.518 7.848 7.848s-3.51 7.848-7.848 7.848c-51.929 0-94.171-42.25-94.171-94.171 0-4.33 3.51-7.848 7.848-7.848s7.848 3.518 7.848 7.848c-0.001 43.276 35.206 78.475 78.475 78.475zM256.015 145.524c-4.337 0-7.848-3.517-7.848-7.848 0-4.329 3.51-7.848 7.848-7.848 51.929 0 94.171 42.25 94.171 94.171 0 4.33-3.51 7.848-7.848 7.848s-7.848-3.517-7.848-7.848c0.001-43.275-35.206-78.475-78.475-78.475zM318.781 224c0 34.671-28.095 62.781-62.781 62.781-34.671 0-62.781-28.11-62.781-62.781 0-34.678 28.11-62.781 62.781-62.781 34.686 0 62.781 28.103 62.781 62.781zM224.61 224c0 17.313 14.086 31.39 31.39 31.39 17.32 0 31.39-14.078 31.39-31.39 0-17.312-14.071-31.39-31.39-31.39-17.305 0-31.39 14.078-31.39 31.39zM263.863 224c0 4.33-3.51 7.848-7.848 7.848-4.337 0-7.848-3.517-7.848-7.848 0-4.33 3.51-7.848 7.848-7.848 4.337 0 7.848 3.518 7.848 7.848z" />
<glyph unicode="&#xe603;" d="M256.015 326.030c-56.343 0-102.019-45.675-102.019-102.019s45.675-102.019 102.019-102.019 102.019 45.675 102.019 102.019-45.675 102.019-102.019 102.019zM256.015 153.383c-38.947 0-70.628 31.682-70.628 70.628 0 38.939 31.682 70.628 70.628 70.628 38.947 0 70.628-31.689 70.628-70.628 0.001-38.946-31.681-70.628-70.628-70.628zM239.462 276.469c-17.519-5.449-31.098-19.198-36.318-36.778-1.234-4.154 1.134-8.522 5.296-9.748 0.743-0.23 1.495-0.337 2.23-0.337 3.387 0 6.514 2.208 7.526 5.625 3.724 12.545 13.412 22.363 25.926 26.248 4.138 1.288 6.453 5.686 5.165 9.825-1.288 4.13-5.664 6.452-9.825 5.165zM504.364 232.871c-4.353 6.368-108.303 155.933-248.349 155.933-140.077 0-244.027-149.571-248.38-155.933-3.655-5.349-3.655-12.384 0-17.733 4.353-6.361 108.303-155.94 248.38-155.94 140.046 0 243.996 149.579 248.349 155.948 3.656 5.34 3.656 12.383 0 17.725zM256.015 90.587c-105.168 0-191.937 102.279-215.909 133.416 23.972 31.13 110.741 133.409 215.909 133.409 105.153 0 191.937-102.302 215.886-133.416-23.911-31.129-110.503-133.409-215.886-133.409z" />
<glyph unicode="&#xe604;" d="M83.383 255.479c43.345 0 78.476 35.138 78.476 78.476s-35.131 78.468-78.476 78.468c-43.346 0-78.476-35.131-78.476-78.468 0-43.338 35.13-78.476 78.476-78.476zM83.383 381.033c25.965 0 47.086-21.121 47.086-47.078 0-25.958-21.121-47.086-47.086-47.086s-47.086 21.128-47.086 47.086c0.001 25.957 21.122 47.078 47.086 47.078zM303.086 255.402c60.673 0 109.866 49.186 109.866 109.859 0 60.674-49.194 109.866-109.866 109.866-60.682 0-109.866-49.193-109.866-109.866-0.001-60.673 49.184-109.859 109.866-109.859zM303.086 443.737c43.268 0 78.476-35.207 78.476-78.476s-35.208-78.468-78.476-78.468c-43.269 0-78.476 35.199-78.476 78.468s35.206 78.476 78.476 78.476zM475.733 192.606c-6.905 0-13.236-2.292-18.416-6.077v0.108l-60.060-44.373v34.646c0 26.003-21.083 47.086-47.086 47.086h-298.209c-26.003 0-47.086-21.083-47.086-47.086v-156.952c0-26.002 21.082-47.086 47.086-47.086h298.209c26.002 0 47.086 21.083 47.086 47.086v35.23l60.819-45.476c5.027-3.433 11.104-5.449 17.657-5.449 17.335 0 31.39 14.048 31.39 31.39v125.562c0 17.343-14.055 31.391-31.39 31.391zM365.866 142.263v-122.304c0-8.652-7.043-15.695-15.695-15.695h-298.209c-8.653 0-15.695 7.043-15.695 15.695v156.951c0 8.653 7.042 15.695 15.695 15.695h298.209c8.652 0 15.695-7.042 15.695-15.695v-34.647zM416.056 80.325l-24.754 18.5 84.431 62.383 0.045-125.531-59.722 44.648z" />
<glyph unicode="&#xe605;" d="M400.64 240.247c24.884 18.73 43.453 51.852 43.453 89.711 0 58.52-41.499 105.958-90.262 105.958-37.935 0-71.357-28.77-84.37-69.065-16.584 40.709-52.32 69.003-92.209 69.003-54.864 0-101.965-51.315-101.965-117.147 0-42.594 21.305-81.924 49.316-103-69.31-22.254-119.493-87.212-119.508-163.91 0.015-21.933 17.802-39.714 39.736-39.714h264.887c21.933 0 39.721 17.78 39.736 39.714 0 2.498-0.199 4.95-0.307 7.434h122.435c19.496 0 35.306 15.802 35.321 35.299-0.013 68.192-44.639 125.93-106.263 145.717zM295.464 338.833c0.137 1.456 0.33 2.897 0.536 4.337 0.261 1.732 0.567 3.448 0.935 5.15 0.184 0.905 0.352 1.839 0.574 2.729 3.641 14.622 11.059 27.758 20.569 37.567 10.062 9.932 22.539 15.91 35.751 15.91 13.158 0 25.604-5.948 35.651-15.803 9.565-9.825 17.044-23.007 20.707-37.705 0.207-0.859 0.368-1.748 0.552-2.621 0.368-1.732 0.682-3.495 0.95-5.257 0.207-1.426 0.399-2.851 0.537-4.292 0.176-1.839 0.283-3.678 0.337-5.533 0.031-0.95 0.108-1.869 0.115-2.82-0.008-0.95-0.084-1.886-0.115-2.836-0.053-1.854-0.161-3.694-0.337-5.518-0.138-1.456-0.33-2.882-0.537-4.307-0.268-1.763-0.582-3.51-0.95-5.257-0.184-0.874-0.345-1.748-0.552-2.621-3.663-14.684-11.143-27.865-20.707-37.69-10.047-9.871-22.493-15.802-35.651-15.802-13.212 0-25.689 5.978-35.751 15.909-9.51 9.795-16.929 22.93-20.569 37.552-0.222 0.904-0.391 1.824-0.574 2.728-0.368 1.701-0.675 3.433-0.935 5.165-0.206 1.426-0.399 2.867-0.536 4.338-0.177 1.808-0.284 3.648-0.337 5.502-0.031 0.935-0.108 1.87-0.115 2.836 0.007 0.95 0.084 1.885 0.115 2.835 0.053 1.84 0.161 3.679 0.337 5.504zM274.343 281.692c7.817-16.967 19.259-31.36 32.685-41.46-21.19-6.805-40.334-18.148-56.351-32.846-6.713 3.173-13.61 6.039-20.768 8.338 19.987 15.036 36.556 38.363 44.434 65.968zM107.397 307.105c0 0.015 0 0.031 0 0.046-0.475 3.832-0.72 7.68-0.72 11.542v0.015c0 0 0 0 0 0.016 0 0 0 0 0 0.015 0.008 26.516 11.665 51.592 28.272 68.222 11.993 10.99 26.753 17.503 42.303 17.503 19.305 0 37.437-10.514 50.519-27.282 9.986-13.703 17.205-30.961 19.412-48.909 0-0.016 0-0.031 0.008-0.046 0.468-3.832 0.713-7.695 0.713-11.541v-0.031c0-0.016 0-0.016 0-0.031-0.008-26.501-11.664-51.577-28.248-68.207-12.001-10.99-26.761-17.504-42.326-17.504-19.305 0-37.437 10.514-50.519 27.283-9.987 13.687-17.206 30.961-19.414 48.909zM309.719 43.474h-264.887c-4.599 0-8.346 3.74-8.346 8.323 0.015 61.401 39.276 115.262 97.712 134.022l3.87 1.241c21.006 6.744 56.696 8.338 78.445-0.015l3.809-1.227c58.45-18.746 97.727-72.605 97.743-134.007 0-4.597-3.748-8.337-8.346-8.337zM471.583 90.622h-126.627c-9.411 40.74-33.237 75.947-65.885 99.919 11.020 8.568 23.658 15.343 37.552 19.803l9.786 3.142c7.817 2.621 34.655 6.882 54.642 0.077l9.994-3.203c50.511-16.216 84.454-62.766 84.468-115.798 0.001-2.178-1.761-3.94-3.93-3.94z" />
<glyph unicode="&#xe606;" d="M270.382 214.223c33.169 24.98 55.301 69.146 55.301 119.615 0 78.012-52.695 141.257-117.714 141.257-65.003 0-117.714-63.245-117.714-141.257 0-50.48 22.133-94.65 55.332-119.63-82.139-26.371-141.609-103.341-141.625-194.236 0.016-25.995 21.090-47.067 47.086-47.067h313.904c25.995 0 47.071 21.072 47.086 47.067-0.015 90.911-59.501 167.892-141.656 194.251zM285.771 381.115c-56.221 2.686-101.605 19.205-124.366 45.086 13.442 11.024 29.414 17.503 46.565 17.503 34.286 0 63.884-25.643 77.801-62.589zM121.646 333.838c0 25.957 7.143 49.799 19.021 68.621 30.578-32.218 85.251-51.439 152.645-52.987 0.582-5.123 0.981-10.315 0.981-15.634 0-60.581-38.717-109.866-86.324-109.866-47.591-0.001-86.323 49.285-86.323 109.866zM364.952 4.296h-313.904c-8.645 0-15.68 7.039-15.695 15.669 0.015 95.182 77.464 172.616 172.647 172.616s172.632-77.434 172.647-172.59c0-8.656-7.035-15.695-15.695-15.695z" horiz-adv-x="416" />
<glyph unicode="&#xe607;" d="M193.234 101.182v-26.225c0-8.675 7.028-15.695 15.695-15.695s15.695 7.020 15.695 15.695v26.225c18.27 6.468 31.39 23.865 31.39 44.342 0 25.995-21.090 47.086-47.093 47.086-25.995 0-47.078-21.090-47.078-47.086 0.001-20.492 13.121-37.874 31.391-44.342zM208.922 161.219c8.66 0 15.703-7.035 15.703-15.695 0-8.645-7.043-15.695-15.703-15.695-8.652 0-15.687 7.050-15.687 15.695-0.001 8.66 7.035 15.695 15.687 15.695zM67.673 302.476h-15.695c-26.003 0-47.086-21.075-47.086-47.086v-235.428c0-26.010 21.083-47.086 47.086-47.086h313.904c26.002 0 47.086 21.076 47.086 47.086v235.428c0 24.8-19.19 45.077-43.515 46.902l-301.78 0.184zM365.882 271.086c8.652 0 15.695-7.035 15.695-15.695v-235.428c0-8.66-7.043-15.695-15.695-15.695h-313.904c-8.653 0-15.695 7.035-15.695 15.695v235.427c0 8.66 7.042 15.695 15.695 15.695h313.904zM381.546 475.123c-69.348 0-125.562-56.205-125.562-125.562v-47.086h0.031v-0.184l62.505 0.046v12.829h0.215v34.364c0 34.64 28.179 62.811 62.811 62.811s62.811-28.171 62.811-62.811v-39.269h-0.031v-7.786h-0.246v-0.046h0.246v-15.71l62.781 15.756v47.086c0.001 69.357-56.212 125.562-125.561 125.562zM381.546 428.038c-43.361 0-78.507-35.145-78.507-78.507v-47.055h-15.665v47.086c0 51.929 42.242 94.171 94.171 94.171s94.171-42.242 94.171-94.171v-23.604l-15.665-3.433v27.007c0.002 43.36-35.144 78.506-78.505 78.506z" />
<glyph unicode="&#xe608;" d="M271.665 439.235v16.239c0 8.668-7.028 15.695-15.695 15.695s-15.695-7.028-15.695-15.695v-16.239c-131.165-8.155-235.398-117.401-235.398-250.584 0-6.767 0.322-9.453 0.973-17.159 0.698-8.124 7.487-14.362 15.642-14.362h1.103c8.668 0 15.687 7.288 15.687 15.956 0 23.52 20.156 39.319 43.675 39.319 23.512 0 41.621-15.657 41.637-39.165 0-0.096-0.008-0.203-0.008-0.28 0-8.668 7.028-15.695 15.695-15.695h0.024c8.667 0 15.695 7.028 15.695 15.695 0 0.1-0.008 0.218-0.016 0.33 0.038 23.486 19.159 38.904 42.656 38.904 23.351 0 42.365-15.231 42.634-38.467v-149.81c0-25.965 21.121-47.086 47.086-47.086 25.965 0 47.086 21.121 47.086 47.086 0 8.668-7.028 15.695-15.695 15.695-8.668 0-15.695-7.028-15.695-15.695 0-8.656-7.043-15.695-15.695-15.695-8.653 0-15.695 7.039-15.695 15.695v148.583c0 0.154 0.046 0.299 0.046 0.456 0 0.1-0.008 0.219-0.008 0.33 0.031 23.486 19.152 38.908 42.649 38.908 23.504 0 42.626-15.419 42.663-38.908-0.007-0.108-0.015-0.23-0.015-0.33 0-8.668 7.028-15.695 15.695-15.695h0.023c5.418 0 10.147 2.878 12.967 7.127 0.038 0.069 0.076 0.138 0.122 0.207 0.452 0.698 0.851 1.425 1.188 2.192 0.137 0.31 0.253 0.633 0.375 0.954 0.207 0.578 0.399 1.157 0.544 1.759 0.107 0.433 0.176 0.87 0.246 1.311 0.046 0.31 0.145 0.605 0.177 0.92 0.015 0.122 0.023 0.261 0.031 0.399 0.023 0.356 0.038 0.713 0.038 1.073 0 0.004 0 0.011 0 0.011 0 23.524 19.129 38.981 42.649 38.981 23.528 0 42.663-15.457 42.671-38.426-0.008-0.23-0.015-0.586-0.015-0.812 0-8.668 7.028-15.695 15.695-15.695h1.103c8.154 0 14.944 6.238 15.641 14.362 0.652 7.706 0.974 10.262 0.974 17.029-0.002 133.204-104.267 242.462-235.46 250.582zM431.053 242.78c-23.673 0-44.778-11.166-58.344-28.509-13.565 17.342-34.686 28.509-58.359 28.509-23.673 0-44.786-11.166-58.351-28.509-13.565 17.342-34.686 28.509-58.359 28.509s-44.786-11.166-58.351-28.509c-13.565 17.342-34.678 28.509-58.351 28.509-15.006 0-28.984-4.487-40.656-12.201 19.62 101.18 108.886 177.805 215.718 177.805 106.824 0 196.082-76.621 215.717-177.793-11.679 7.702-25.658 12.189-40.664 12.189z" />
<glyph unicode="&#xe609;" d="M503.383 325.659l-95.604 95.52c-8.576 9.028-20.669 14.684-34.095 14.684h-40.817c-7.265-35.82-38.931-62.781-76.897-62.781s-69.632 26.96-76.898 62.781h-40.816c-13.412 0-25.49-5.641-34.066-14.638h-0.007l-95.566-95.566c-5.035-5.027-5.027-13.197 0-18.224l82.554-82.553v-14.147h-0.031v-175.055c0-12.997 10.537-23.543 23.543-23.543h282.514c13.005 0 23.543 10.546 23.543 23.543v75.763h0.031v113.377l82.614 82.614c5.026 5.028 5.034 13.197-0.002 18.225zM420.769 269.223v33.214h-0.031v23.559c0 8.66-7.028 15.695-15.695 15.695-8.668 0-15.695-7.035-15.695-15.695v-26.486c0-0.108 0.031-0.199 0.031-0.307v-88.469h-0.031v-167.206h-266.818v67.915h0.031v214.553c0 8.66-7.028 15.695-15.695 15.695s-15.695-7.035-15.695-15.695v-56.712l-47.278 47.27 83.029 83.012c0.177 0.184 0.352 0.368 0.537 0.536l0.629 0.629 0.023-0.092c2.744 2.345 6.261 3.832 10.147 3.832h18.446c17.864-37.537 56.252-62.781 99.268-62.781s81.403 25.244 99.267 62.781h18.447c4.031 0 7.679-1.579 10.461-4.093l0.023 0.108 6.783-6.775 0.007-0.016 77.151-77.142-47.342-47.33z" />
<glyph unicode="&#xe60a;" d="M161.829 192.577c-17.32 0-31.39-14.051-31.39-31.39s14.070-31.39 31.39-31.39c17.335 0 31.39 14.052 31.39 31.39 0 17.339-14.056 31.39-31.39 31.39zM350.14 192.577c-17.32 0-31.39-14.051-31.39-31.39s14.071-31.39 31.39-31.39c17.335 0 31.39 14.052 31.39 31.39 0 17.339-14.055 31.39-31.39 31.39zM475.733 475.095h-439.466c-17.335 0-31.39-14.051-31.39-31.39v-329.599c0-17.339 14.055-31.39 31.39-31.39h43.207c5.273-5.859 11.971-10.376 19.573-13.009v-34.019c0-34.67 28.11-62.781 62.781-62.781 34.67 0 62.781 28.111 62.781 62.781v31.394h62.749v-31.394c0-34.67 28.111-62.781 62.781-62.781 34.671 0 62.781 28.111 62.781 62.781v34.23c7.373 2.659 13.871 7.089 19.006 12.798h43.806c17.335 0 31.39 14.051 31.39 31.39v329.598c0.001 17.339-14.055 31.391-31.389 31.391zM412.645 114.166c0-8.652-7.035-15.695-15.695-15.695h-282.514c-8.645 0-15.695 7.043-15.695 15.695v235.424c0 8.657 7.050 15.695 15.695 15.695h282.514c8.66 0 15.695-7.039 15.695-15.695v-235.424zM193.219 35.686c0-17.308-14.086-31.39-31.39-31.39-17.305 0-31.39 14.083-31.39 31.39v31.394h62.781v-31.394zM350.14 4.296c-17.304 0-31.39 14.083-31.39 31.39v31.394h62.781v-31.394c-0.001-17.308-14.086-31.39-31.391-31.39zM475.733 114.105h-31.697c0 0.023 0 0.038 0 0.061v235.424c0 26.007-21.076 47.086-47.086 47.086h-282.514c-25.995 0-47.086-21.079-47.086-47.086v-235.424c0-0.023 0-0.038 0-0.061h-31.083v329.599h439.466v-329.599zM365.866 333.773h-219.732c-8.661 0-15.695-7.028-15.695-15.695v-109.805h251.123v109.804c0 8.668-7.021 15.696-15.696 15.696zM365.866 223.967h-219.732v94.11h219.733v-94.11z" />
<glyph unicode="&#xe60b;" d="M68.233-27.223c-16.768 0-32.532 6.53-44.396 18.385-11.856 11.857-18.385 27.628-18.385 44.396 0 16.769 6.529 32.532 18.385 44.388l194.013 194.013c-20.286 54.267-7.235 116.4 34.073 157.704 28.087 28.090 65.455 43.56 105.214 43.56 21.55 0 43.247-4.763 62.742-13.772 4.66-2.149 7.971-6.441 8.867-11.495 0.905-5.050-0.72-10.223-4.353-13.848l-65.869-65.866 7.403-36.993 36.985-7.403 65.302 65.302c3.648 3.666 8.852 5.284 13.987 4.33 5.088-0.954 9.38-4.353 11.472-9.093 25.045-56.78 12.92-121.783-30.885-165.589-28.102-28.102-65.486-43.583-105.253-43.583v0c-17.274 0-34.118 2.912-50.205 8.66l-194.71-194.703c-11.855-11.863-27.62-18.393-44.387-18.393zM357.137 443.832c-31.375 0-60.857-12.204-83.021-34.364-34.67-34.67-44.112-87.96-23.497-132.604 2.758-5.963 1.502-13.029-3.15-17.673l-201.438-201.438c-5.924-5.932-9.189-13.81-9.189-22.195 0-8.384 3.265-16.27 9.189-22.194 5.931-5.931 13.817-9.197 22.202-9.197 8.384 0 16.262 3.265 22.194 9.197l202.007 202c4.575 4.575 11.472 5.886 17.427 3.265 15.082-6.652 31.122-10.025 47.676-10.025 31.383 0 60.88 12.216 83.059 34.387 28.823 28.831 40.265 69.302 31.804 107.95l-53.232-53.228c-3.717-3.713-9.020-5.33-14.177-4.296l-55.485 11.105c-6.207 1.241-11.067 6.096-12.308 12.311l-11.097 55.489c-1.034 5.146 0.583 10.465 4.292 14.174l54.113 54.117c-8.961 2.124-18.18 3.219-27.369 3.219z" />
<glyph unicode="&#xe60c;" d="M420.784 341.683c-17.335 0-31.383-31.635-31.383-70.628 0-39.008 14.047-70.628 31.383-70.628 17.335 0 31.398 31.62 31.398 70.628 0.001 38.993-14.062 70.628-31.398 70.628zM420.784 216.214c-4.629 2.208-15.687 21.183-15.687 54.841 0 33.659 11.059 52.619 15.687 54.841 4.629-2.208 15.703-21.182 15.703-54.841 0-33.674-11.073-52.634-15.703-54.841zM507.108 271.055c0 99.613-38.587 180.372-86.232 180.495-0.031 0-0.053 0-0.084 0h-329.852c-0.13 0-0.253-0.031-0.384-0.031-47.376-0.751-85.664-81.235-85.664-180.464v0 0-258.91c0-6.346 3.824-12.063 9.687-14.499 1.947-0.797 3.985-1.196 6.008-1.196 4.085 0 8.093 1.595 11.097 4.599l35.988 35.988 35.989-35.988c6.131-6.131 16.062-6.131 22.194 0l35.988 35.988 35.973-35.973c6.131-6.131 16.063-6.131 22.194 0l35.973 35.973 35.989-35.988c6.131-6.131 16.062-6.131 22.194 0l47.086 47.086c2.943 2.943 4.598 6.943 4.598 11.097v31.328h54.888c0.015 0 0.031 0 0.046 0 0.024 0 0.046 0 0.077 0h0.414c0.154 0 0.307 0.046 0.46 0.046 47.246 1.073 85.373 81.419 85.373 180.449zM303.070 34.34l-35.988 35.988c-6.131 6.131-16.063 6.131-22.194 0l-35.973-35.973-35.973 35.973c-6.131 6.131-16.063 6.131-22.194 0l-35.989-35.988-35.989 35.988c-6.131 6.131-16.063 6.131-22.194 0l-20.294-20.293v213.172h0.185c-0.054 2.621-0.185 5.165-0.185 7.848 0 92.071 35.238 148.553 54.658 149.059v0.046h281.195c-22.745-32.494-37.675-87.152-37.675-149.104v0-31.39h-54.91c-4.338 0-7.848-3.51-7.848-7.848 0-4.337 3.509-7.848 7.848-7.848h54.91v-158.24l-31.39-31.39zM420.808 121.951h-54.957v141.256h0.184c-0.054 2.621-0.184 5.165-0.184 7.848 0 92.5 35.568 149.104 54.933 149.104 19.366 0 54.933-56.604 54.933-149.104 0-92.47-35.544-149.058-54.909-149.104zM114.759 239.665h-54.934c-4.337 0-7.848-3.51-7.848-7.848 0-4.337 3.51-7.848 7.848-7.848h54.933c4.338 0 7.848 3.51 7.848 7.848 0 4.337-3.509 7.848-7.847 7.848zM224.594 239.665h-54.933c-4.337 0-7.848-3.51-7.848-7.848 0-4.337 3.51-7.848 7.848-7.848h54.933c4.338 0 7.848 3.51 7.848 7.848 0 4.337-3.51 7.848-7.848 7.848z" />
<glyph unicode="&#xe60d;" d="M240.709 286.377c-3.057 3.061-7.074 4.594-11.097 4.594-4.016 0-8.031-1.533-11.096-4.594l-133.18-133.18c-6.131-6.134-6.131-16.066 0-22.19l77.686-77.694c3.065-3.065 7.081-4.598 11.097-4.598 4.016 0 8.031 1.533 11.097 4.598l133.179 133.179c6.131 6.127 6.131 16.063 0 22.198l-77.686 77.687zM174.12 64.41l-77.687 77.687 133.164 133.179c0 0 0.008 0 0.015 0l77.687-77.687-133.179-133.179zM500.117 468.14c-9.182 9.181-24.118 9.181-33.299 0l-92.914-92.915-20.746 20.75c-0.429 0.379-0.881 0.797-1.402 1.318-9.587 9.587-22.171 11.148-28.095 11.159h-55.271c-11.771-0.011-22.224-5.64-27.681-11.097l-221.917-221.922c-18.393-18.385-18.393-48.2 0-66.585l122.074-122.083c9.189-9.192 21.244-13.791 33.299-13.791 12.048 0 24.094 4.599 33.291 13.791l221.925 221.921c10.415 10.419 11.112 22.049 11.12 29.762v53.193c-0.008 15.056-5.472 22.466-11.104 28.091l-22.195 22.195 92.915 92.922c9.181 9.177 9.181 24.11 0 33.291zM409.111 291.641v-53.163c-0.008-5.445-0.598-6.265-1.923-7.598l-221.925-221.916c-4.001-4.001-8.676-4.599-11.097-4.599-2.437 0-7.104 0.598-11.104 4.599l-122.076 122.085c-4.001 3.997-4.598 8.664-4.598 11.093 0 2.425 0.597 7.093 4.598 11.096l221.787 221.787c0.789 0.69 3.341 2.031 5.617 2.035h55.209c1.311-0.004 4.483-0.487 5.963-1.966 0.713-0.713 1.364-1.333 1.977-1.893l20.171-20.171-22.239-22.24c-0.046-0.046-0.069-0.104-0.115-0.145-1.801 0.245-3.602 0.517-5.41 0.517-10.039 0-20.079-3.836-27.743-11.496-15.32-15.323-15.327-40.165 0-55.489 7.664-7.663 17.703-11.491 27.75-11.491 10.039 0 20.087 3.828 27.743 11.491 15.319 15.324 15.319 40.166 0 55.489-1.909 1.905-3.962 3.575-6.131 5.008l17.251 17.251 44.395-44.396c1.647-1.645 1.9-1.898 1.9-5.888zM329.47 297.493c4.92-4.92 11.457-7.017 17.902-6.641-0.253-5.668-2.46-11.262-6.775-15.577-4.445-4.445-10.361-6.893-16.646-6.893-6.291 0-12.208 2.448-16.653 6.893s-6.897 10.361-6.897 16.646c0 6.292 2.452 12.201 6.897 16.653 4.146 4.146 9.594 6.468 15.403 6.774-0.32-6.429 1.871-12.958 6.769-17.855zM489.020 445.945l-92.914-92.922-11.097 11.105 92.914 92.914c3.058 3.058 8.032 3.061 11.097 0 3.058-3.061 3.058-8.038 0-11.097z" />
<glyph unicode="&#xe60e;" d="M240 408.388c-95.337 0-172.647-77.296-172.647-172.647 0-95.336 77.311-172.632 172.647-172.632 95.351 0 172.647 77.296 172.647 172.632 0 95.351-77.296 172.647-172.647 172.647zM240 94.5c-77.886 0-141.257 63.363-141.257 141.241 0 77.894 63.371 141.257 141.257 141.257s141.257-63.363 141.257-141.257c0-77.878-63.371-141.241-141.257-141.241zM240.007 345.607c-60.673 0-109.873-49.185-109.873-109.866 0-60.665 49.201-109.851 109.873-109.851 60.674 0 109.859 49.186 109.859 109.851 0 60.681-49.185 109.866-109.859 109.866zM240.007 157.28c-43.276 0-78.483 35.192-78.483 78.46 0 43.269 35.207 78.476 78.483 78.476 43.269 0 78.469-35.207 78.469-78.476 0-43.268-35.2-78.46-78.469-78.46zM240.007 282.826c-26.002 0-47.093-21.075-47.093-47.086 0-25.995 21.090-47.086 47.093-47.086 26.003 0 47.079 21.090 47.079 47.086 0 26.012-21.076 47.086-47.079 47.086zM240.007 220.046c-8.66 0-15.702 7.051-15.702 15.695 0 8.661 7.042 15.695 15.702 15.695 8.653 0 15.688-7.035 15.688-15.695 0-8.644-7.035-15.695-15.688-15.695zM388.59 53.162c52.979 43.162 86.838 108.916 86.838 182.579 0 130.022-105.407 235.428-235.428 235.428-130.022 0-235.428-105.406-235.428-235.428 0-73.663 33.85-139.402 86.821-182.563l-36.808-51.53c-5.043-7.051-3.411-16.845 3.648-21.888 2.758-1.978 5.947-2.928 9.104-2.928 4.897 0 9.726 2.284 12.783 6.576l36.863 51.592c35.805-21.98 77.924-34.686 123.017-34.686 45.085 0 87.197 12.691 123.002 34.671l36.847-51.577c3.058-4.291 7.886-6.576 12.783-6.576 3.158 0 6.346 0.95 9.105 2.928 7.058 5.043 8.69 14.837 3.648 21.888l-36.795 51.514zM35.962 235.741c0 112.503 91.534 204.038 204.038 204.038 112.502 0 204.038-91.534 204.038-204.038 0-112.502-91.535-204.038-204.038-204.038-112.503 0-204.038 91.535-204.038 204.038z" horiz-adv-x="480" />
<glyph unicode="&#xe60f;" d="M333.241 475.123h-282.482c-26.003 0-47.086-21.083-47.086-47.086v-408.075c0-26.002 21.083-47.086 47.086-47.086h282.483c26.003 0 47.086 21.083 47.086 47.086v408.076c-0.001 26.003-21.083 47.085-47.087 47.085zM50.759 443.733h282.483c8.652 0 15.695-7.042 15.695-15.695v-15.756h-313.874v15.756c0 8.652 7.044 15.695 15.696 15.695zM348.937 396.586v-313.85h-313.874v313.85h313.874zM333.241 4.267h-282.482c-8.652 0-15.695 7.043-15.695 15.695v47.079h313.873v-47.079c0-8.652-7.044-15.695-15.696-15.695zM192 51.414c-8.675 0-15.695-7.028-15.695-15.695s7.020-15.702 15.695-15.702c8.668 0 15.695 7.035 15.695 15.702 0 8.667-7.028 15.695-15.695 15.695z" horiz-adv-x="384" />
<glyph unicode="&#xe610;" d="M491.397 239.695h-102.992c-2.95 25.076-12.844 47.975-27.711 66.812l72.859 72.851c6.131 6.131 6.131 16.063 0 22.194s-16.063 6.131-22.195 0l-72.866-72.866c-18.837 14.867-41.737 24.754-66.796 27.697v103.014c0 8.676-7.027 15.695-15.695 15.695s-15.695-7.020-15.695-15.695v-103.015c-25.061-2.943-47.96-12.829-66.796-27.697l-72.867 72.866c-6.131 6.131-16.063 6.131-22.194 0s-6.131-16.062 0-22.194l72.858-72.851c-14.867-18.837-24.761-41.736-27.711-66.812h-102.993c-8.668 0-15.695-7.020-15.695-15.695 0-8.66 7.028-15.695 15.695-15.695h102.984c2.943-25.075 12.829-47.974 27.697-66.827l-72.835-72.835c-6.131-6.116-6.131-16.063 0-22.195 3.065-3.065 7.081-4.598 11.097-4.598 4.016 0 8.032 1.533 11.097 4.598l72.828 72.836c18.844-14.883 41.752-24.769 66.835-27.712v-102.968c0-8.661 7.028-15.695 15.695-15.695 8.668 0 15.695 7.035 15.695 15.695v102.968c25.083 2.943 47.99 12.829 66.835 27.712l72.827-72.836c3.066-3.065 7.082-4.598 11.097-4.598s8.031 1.533 11.097 4.598c6.131 6.131 6.131 16.079 0 22.195l-72.836 72.835c14.868 18.853 24.754 41.752 27.697 66.827h102.985c8.668 0 15.695 7.035 15.695 15.695 0 8.676-7.028 15.696-15.696 15.696zM256 121.95c-56.252 0-102.019 45.768-102.019 102.019 0 56.252 45.767 102.019 102.019 102.019 56.251 0 102.019-45.767 102.019-102.019 0-56.251-45.768-102.019-102.019-102.019z" />
<glyph unicode="&#xe611;" d="M401.503-15.6c-2.637 0-5.273 0.659-7.664 2l-137.839 77.158-137.839-77.158c-5.334-2.989-11.932-2.613-16.89 0.997-4.951 3.594-7.357 9.755-6.17 15.756l30.785 154.936-115.974 107.247c-4.491 4.161-6.162 10.553-4.269 16.377s6.997 10.016 13.082 10.736l156.86 18.6 66.161 143.434c2.567 5.556 8.131 9.12 14.254 9.12s11.687-3.564 14.254-9.12l66.16-143.434 156.86-18.6c6.085-0.72 11.189-4.912 13.082-10.736 1.893-5.824 0.222-12.216-4.268-16.377l-115.974-107.246 30.356-152.783c0.575-1.632 0.881-3.388 0.881-5.212 0-8.668-7.020-15.695-15.695-15.695-0.046 0-0.108 0-0.153 0zM256 97.24c2.644 0 5.288-0.666 7.663-2l115.813-64.827-25.865 130.175c-1.065 5.349 0.736 10.874 4.737 14.576l97.444 90.117-131.8 15.626c-5.418 0.644-10.116 4.062-12.407 9.013l-55.585 120.52-55.585-120.519c-2.292-4.951-6.99-8.369-12.408-9.013l-131.8-15.626 97.444-90.117c4-3.702 5.801-9.227 4.736-14.576l-25.865-130.175 115.813 64.827c2.377 1.333 5.022 1.999 7.665 1.999z" />
<glyph unicode="&#xe612;" d="M256 475.123c-138.689 0-251.123-112.426-251.123-251.123s112.434-251.123 251.123-251.123c138.69 0 251.123 112.426 251.123 251.123s-112.433 251.123-251.123 251.123zM256 4.267c-121.162 0-219.733 98.571-219.733 219.733 0 121.163 98.57 219.733 219.733 219.733 121.163 0 219.733-98.57 219.733-219.733 0-121.162-98.57-219.733-219.733-219.733zM412.921 239.695c-8.668 0-15.695-7.035-15.695-15.695 0-77.894-63.371-141.257-141.257-141.257s-141.256 63.363-141.256 141.257c0 8.66-7.028 15.695-15.695 15.695s-15.696-7.035-15.696-15.695c0-95.198 77.45-172.647 172.647-172.647 95.199 0 172.647 77.449 172.647 172.647 0.001 8.66-7.027 15.695-15.695 15.695zM185.357 247.205c17.342 0 31.39 21.076 31.39 47.086 0 26.011-14.048 47.086-31.39 47.086-17.343 0-31.39-21.075-31.39-47.086-0.001-26.010 14.046-47.086 31.39-47.086zM326.644 247.205c17.342 0 31.39 21.076 31.39 47.086 0 26.011-14.048 47.086-31.39 47.086-17.343 0-31.39-21.075-31.39-47.086 0-26.010 14.047-47.086 31.39-47.086z" />
<glyph unicode="&#xe613;" d="M507.108 267.131l-23.482 62.613v39.406l-22.018 54.933c-3.717 9.274-15.151 22.654-31.275 23.543h-346.965c-17.036 0-29.49-14.914-32.939-23.512l-21.964-54.964c0 0 0-25.351 0-39.176v-0.062h-0.030l-23.574-62.781h0.031v-16.967c0-17.626 9.472-33.015 23.573-41.46v-161.244c0-26.011 21.083-47.086 47.086-47.086h360.99c26.003 0 47.086 21.075 47.086 47.086v161.274c14.071 8.461 23.512 23.819 23.512 41.43v16.967h-0.031zM83.698 416.235h344.987c1.127-0.475 3.181-2.559 3.786-3.831l14.293-35.652h-381.452l14.116 35.329c0.851 1.502 3.066 3.649 4.27 4.154zM59.856 329.974v31.084h392.38v-31.146l-392.38 0.062zM20.587 264.357l18.722 49.86h433.381l10.63-28.355v-57.018c-5.993-6.882-14.714-11.342-24.532-11.342h-0.498c-10.944 0-21.106 5.456-27.199 14.592-2.911 4.368-7.809 6.989-13.058 6.989-5.25 0-10.147-2.621-13.059-6.989-6.092-9.135-16.255-14.592-27.198-14.592h-0.49c-10.943 0-21.113 5.456-27.206 14.607-2.912 4.353-7.809 6.974-13.059 6.974h-0.007c-5.25 0-10.147-2.621-13.059-6.989-6.077-9.135-16.239-14.592-27.183-14.592h-0.498c-10.944 0-21.106 5.456-27.199 14.592-2.912 4.368-7.809 6.989-13.058 6.989-5.25 0-10.155-2.621-13.059-6.989-6.085-9.135-16.247-14.592-27.19-14.592h-0.498c-10.943 0-21.106 5.456-27.198 14.592-2.912 4.368-7.809 6.989-13.059 6.989-5.249 0-10.154-2.621-13.059-6.989-6.084-9.135-16.247-14.592-27.19-14.592h-0.505c-10.936 0-21.106 5.456-27.206 14.592-2.905 4.368-7.802 6.989-13.051 6.989h-0.012c-5.25 0-10.147-2.621-13.059-6.989-6.077-9.135-16.239-14.592-27.183-14.592h-0.498c-18.009 0-32.662 14.653-32.662 32.663v14.192zM255.985 223.341c0.007 0.015 0.023 0.031 0.031 0.046 8.668-12.997 23.458-21.581 40.257-21.581h0.498c16.806 0 31.59 8.584 40.25 21.581 8.676-12.997 23.467-21.581 40.265-21.581h0.49c10.154 0 19.542 3.173 27.314 8.522v-107.997h-149.105v121.010zM106.911 125.874h86.324v-62.719h-86.324v62.719zM193.235 141.569h-86.324v68.774c7.778-5.349 17.181-8.537 27.344-8.537h0.505c16.806 0 31.59 8.584 40.25 21.581 4.567-6.851 10.86-12.415 18.225-16.201v-65.617zM436.541 31.765h-360.99c-8.653 0-15.695 7.035-15.695 15.695v154.744c12.645 1.594 23.712 8.093 31.36 17.504v-156.553c0-8.676 7.027-15.695 15.695-15.695h86.324c8.668 0 15.695 7.020 15.695 15.695v139.080c2.076-0.275 4.184-0.429 6.338-0.429h0.498c8.974 0 17.327 2.514 24.524 6.759v-106.234c0-8.675 7.028-15.695 15.695-15.695h149.104c8.668 0 15.695 7.020 15.695 15.695v117.423c7.663-9.441 18.775-15.971 31.452-17.565v-154.729c0-8.661-7.043-15.695-15.695-15.695zM491.443 250.164c0-8.016-3.012-15.266-7.817-20.952v55.837l7.817-20.845v-14.040z" />
<glyph unicode="&#xe614;" d="M383.88 443.766c-76.637 0-153.358 29.919-154.125 30.226-3.878 1.533-8.2 1.456-12.016-0.199-0.69-0.291-70.245-30.026-153.618-30.026-32.992 0-59.838-26.846-59.838-59.838v-49.048c0-325.629 215.211-361.48 217.388-361.802 0.766-0.115 1.54-0.169 2.314-0.169 0.827 0 1.655 0.061 2.467 0.191 2.177 0.345 217.266 38.387 217.266 361.779v49.048c-0.001 32.992-26.846 59.838-59.838 59.838zM412.327 334.881c0-280.46-164.891-325.346-188.358-330.304-21.803 4.659-188.296 49.569-188.296 330.304v49.047c0 15.68 12.76 28.448 28.448 28.448 76.238 0 140.514 22.547 160.086 30.172 20.393-7.41 88.853-30.172 159.673-30.172 15.687 0 28.448-12.767 28.448-28.448v-49.047zM228.583 407.134c-2.062 1.471-4.72 1.854-7.111 1.026-33.345-11.495-85.872-25.52-146.76-27.053-4.253-0.1-7.648-3.586-7.648-7.84v-38.387c0-231.765 118.166-286.146 154.384-297.289 0.683-0.214 1.441-0.314 2.2-0.314 1.058 0 2.131 0.191 3.058 0.529 3.104 1.118 5.172 4.069 5.172 7.372v355.564c0 2.53-1.226 4.913-3.295 6.392zM216.183 56.092c-41.253 16.507-133.424 76.192-133.424 278.789v30.792c53.684 2.254 100.54 13.641 133.424 24.187v-333.768z" horiz-adv-x="448" />
<glyph unicode="&#xe615;" d="M462.038 291.15h-15.78c-5.050 0.031-9.702 1.701-11.419 2.82-0.766 1.962-1.563 3.893-2.391 5.824-0.13 0.506-0.283 0.981-0.459 1.471 0.536 2.131 2.659 6.453 6.1 9.917l11.074 11.067c17.558 17.564 17.558 46.166-0.007 63.746l-31.176 31.191c-8.522 8.507-19.841 13.197-31.881 13.197-12.048 0-23.366-4.691-31.897-13.212l-11.182-11.189c-3.594-3.525-8.070-5.625-10.039-6.054-2.322 1.027-4.667 2.008-7.043 2.927-1.119 1.748-2.767 6.376-2.805 11.297v15.894c0 24.861-20.233 45.077-45.093 45.077h-44.082c-24.861 0-45.093-20.216-45.093-45.077v-15.618c0-5.089-1.686-9.825-2.828-11.573-2.383-0.935-4.736-1.916-7.058-2.943-2.015 0.445-6.445 2.545-9.94 5.978l-11.25 11.25c-8.514 8.522-19.833 13.212-31.881 13.212-12.040 0-23.358-4.691-31.873-13.212l-31.175-31.16c-8.514-8.522-13.204-19.834-13.204-31.881 0-12.048 4.691-23.375 13.204-31.881l11.051-11.051c3.587-3.602 5.733-8.124 6.162-10.178-1.019-2.314-1.993-4.66-2.92-7.020-1.716-1.118-6.36-2.789-11.296-2.82h-15.895c-24.861 0-45.085-20.233-45.085-45.093v-44.082c0-24.861 20.224-45.093 45.085-45.093h15.61c5.104 0 9.833-1.686 11.58-2.835 0.928-2.361 1.901-4.691 2.92-7.020-0.421-2.007-2.529-6.468-6.008-10.009l-11.242-11.235c-17.557-17.58-17.557-46.182 0.007-63.746l31.176-31.176c8.515-8.522 19.841-13.212 31.889-13.212 12.039 0 23.366 4.691 31.881 13.212l11.051 11.051c3.617 3.602 8.161 5.748 10.177 6.177 2.322-1.026 4.668-2.007 7.035-2.927 1.142-1.748 2.828-6.484 2.828-11.588v-15.603c0-24.86 20.232-45.093 45.093-45.093h44.082c24.861 0 45.093 20.233 45.093 45.093v15.772c0.038 5.043 1.701 9.687 2.82 11.419 2.322 0.904 4.621 1.854 6.897 2.85 0.038 0.016 0.085 0.031 0.123 0.046 2.031-0.414 6.606-2.56 10.231-6.193l11.020-11.020c8.514-8.522 19.833-13.227 31.888-13.227 12.048 0 23.367 4.691 31.881 13.212l31.176 31.176c17.58 17.58 17.58 46.181 0 63.762l-11.173 11.158c-3.541 3.602-5.649 8.093-6.062 10.086 0.016 0.046 0.031 0.092 0.046 0.138 0.996 2.284 1.954 4.582 2.866 6.897 1.732 1.15 6.468 2.835 11.58 2.835h15.611c24.86 0 45.085 20.232 45.085 45.093v44.082c0 24.861-20.225 45.094-45.085 45.094zM475.733 201.975c0-7.556-6.146-13.703-13.695-13.703h-15.611c-14.991 0-33.337-6.315-39.69-20.125-0.268-0.521-0.514-1.073-0.728-1.624-1.027-2.697-2.138-5.365-3.318-7.986-0.299-0.674-0.552-1.364-0.752-2.054-4.881-14.009 3.396-31.099 13.772-41.66l11.266-11.25c5.341-5.349 5.341-14.039 0-19.373l-31.184-31.176c-5.165-5.165-14.177-5.18-19.358 0l-11.043 11.051c-7.127 7.127-20.033 15.45-32.931 15.45-3.173 0-6.185-0.506-8.989-1.487-0.69-0.199-1.372-0.444-2.038-0.751-2.613-1.165-5.258-2.268-7.955-3.295-0.49-0.184-0.973-0.399-1.441-0.629-13.772-6.223-20.186-24.493-20.293-39.513v-15.88c0-7.556-6.146-13.703-13.703-13.703h-44.082c-7.556 0-13.703 6.146-13.703 13.703v15.603c0 15.082-6.376 33.536-20.331 39.79-0.453 0.23-0.912 0.445-1.395 0.629-2.361 0.904-4.698 1.854-7.005 2.882-0.827 0.429-1.701 0.782-2.605 1.057-2.904 1.074-6.054 1.625-9.372 1.625-12.883 0-25.781-8.323-32.908-15.45l-11.059-11.051c-5.18-5.18-14.193-5.165-19.373 0l-31.178 31.175c-5.341 5.334-5.334 14.024-0.007 19.358l11.311 11.312c10.415 10.561 18.768 27.865 13.603 41.966-0.177 0.567-0.391 1.15-0.644 1.701-1.172 2.621-2.284 5.273-3.318 7.971-0.184 0.475-0.383 0.935-0.606 1.379-6.261 13.979-24.723 20.355-39.798 20.355h-15.61c-7.549 0-13.695 6.146-13.695 13.703v44.082c0 7.556 6.146 13.703 13.695 13.703h16.001c14.914 0.092 33.177 6.499 39.392 20.293 0.23 0.46 0.436 0.935 0.621 1.41 1.034 2.697 2.123 5.318 3.295 7.939 0.191 0.429 0.36 0.859 0.513 1.303 5.541 14.285-2.988 31.911-13.656 42.626l-11.074 11.082c-2.59 2.59-4.009 6.024-4.009 9.687 0 3.648 1.418 7.081 4.009 9.671l31.175 31.175c5.165 5.181 14.201 5.165 19.366 0l11.327-11.326c7.449-7.342 19.925-15.174 32.624-15.174 3.541 0 6.874 0.613 9.94 1.839 0.375 0.137 0.751 0.275 1.119 0.444 2.598 1.165 5.241 2.269 7.924 3.295 0.476 0.184 0.942 0.383 1.388 0.613 13.963 6.254 20.339 24.723 20.339 39.79v15.619c0 7.556 6.146 13.687 13.703 13.687h44.082c7.557 0 13.703-6.131 13.703-13.687v-16.002c0.107-15.005 6.598-33.398 20.546-39.499 0.376-0.184 0.759-0.352 1.15-0.505 2.69-1.027 5.342-2.131 7.955-3.311 0.567-0.246 1.142-0.476 1.724-0.659 2.897-1.058 6.024-1.594 9.327-1.594 12.645 0 25.106 7.786 32.67 15.205l11.288 11.296c5.158 5.165 14.209 5.181 19.382 0l31.167-31.16c5.342-5.349 5.342-14.039 0.008-19.373l-11.082-11.082c-10.575-10.607-19.067-28.049-13.795-42.273 0.169-0.552 0.376-1.088 0.613-1.625 1.172-2.621 2.284-5.272 3.311-7.986 0.214-0.552 0.46-1.103 0.736-1.624 6.299-13.656 24.462-20.002 39.406-20.094h15.887c7.549 0 13.695-6.146 13.695-13.703v-44.082zM256 302.476c-43.269 0-78.476-35.191-78.476-78.476 0-43.269 35.207-78.476 78.476-78.476 43.269 0 78.476 35.207 78.476 78.476 0 43.285-35.207 78.476-78.476 78.476zM256 176.914c-25.965 0-47.086 21.121-47.086 47.086s21.121 47.086 47.086 47.086 47.086-21.121 47.086-47.086-21.121-47.086-47.086-47.086z" />
<glyph unicode="&#xe616;" d="M507.108 227.215c0 8.668-7.028 15.695-15.695 15.695h-239.314l164.815 164.815c6.131 6.127 6.131 16.067 0 22.199-2.613 2.617-5.924 4.042-9.342 4.425-55.5 15.622-117.53 1.882-161.205-41.794-40.656-40.659-55.485-97.24-44.741-149.644h-55.577c9.871 13.124 15.795 29.39 15.795 47.078 0 43.342-35.138 78.476-78.476 78.476-43.338 0-78.476-35.134-78.476-78.476 0-43.342 35.138-78.476 78.476-78.476 0.053 0 0.1 0.008 0.153 0.008h92.792l-70.045-70.054c-0.031-0.027-0.062-0.046-0.085-0.072-30.647-30.643-30.647-80.331 0-110.978 15.32-15.324 35.406-22.987 55.493-22.987s40.173 7.663 55.493 22.987c30.639 30.643 30.647 80.33 0 110.978-12.508 12.507-28.195 19.821-44.457 22.121l47.569 47.572c29.053-46.783 80.691-78.047 139.808-78.047 61.769 0 115.339 34.138 143.54 84.435 2.146 2.685 3.479 6.037 3.479 9.739zM268.56 370.361c28.724 28.724 67.364 41.422 104.992 38.399l-143.387-143.396c-3.027 37.629 9.672 76.27 38.395 104.997zM36.283 289.988c0 25.965 21.121 47.086 47.086 47.086s47.086-21.121 47.086-47.086c0-25.91-21.045-46.994-46.933-47.078h-0.153c-0.016 0-0.031-0.008-0.054-0.008-25.942 0.031-47.032 21.137-47.032 47.086zM161.675 132.99c12.576 0 24.401-4.898 33.299-13.795 18.354-18.354 18.354-48.227 0-66.581-8.898-8.898-20.723-13.794-33.299-13.794s-24.401 4.897-33.299 13.794c-8.89 8.89-13.787 20.715-13.787 33.291 0 12.56 4.889 24.366 13.749 33.253 0.015 0.015 0.031 0.023 0.046 0.035l0.115 0.115c8.883 8.823 20.654 13.682 33.176 13.682zM360.088 164.43c-40.618 0-76.928 18.343-101.39 47.090h202.78c-24.463-28.747-60.773-47.090-101.39-47.090z" />
<glyph unicode="&#xe617;" d="M460.038 459.401h-408.076c-26.010 0-47.086-21.079-47.086-47.086v-329.599c0-26.002 21.076-47.086 47.086-47.086h15.695v-15.641c0-17.335 14.055-31.39 31.39-31.39h31.39c17.335 0 31.39 14.055 31.39 31.39v15.641h188.312v-15.641c0-17.335 14.055-31.39 31.39-31.39h31.39c17.335 0 31.39 14.055 31.39 31.39v15.641h15.726c25.995 0 47.086 21.083 47.086 47.086v329.599c0.002 26.007-21.088 47.086-47.083 47.086zM146.134 19.989c0-8.653-7.050-15.695-15.695-15.695h-31.39c-8.66 0-15.695 7.042-15.695 15.695v15.641h62.781v-15.641zM428.617 19.989c0-8.653-7.050-15.695-15.695-15.695h-31.39c-8.66 0-15.695 7.042-15.695 15.695v15.641h62.781v-15.641zM475.733 82.716c0-8.652-7.050-15.695-15.695-15.695h-408.076c-8.66 0-15.695 7.043-15.695 15.695v329.599c0 8.653 7.035 15.695 15.695 15.695h408.075c8.645 0 15.695-7.042 15.695-15.695v-329.599zM255.969 333.839c-47.684 0-86.324-38.648-86.324-86.324s38.64-86.324 86.324-86.324c47.668 0 86.324 38.648 86.324 86.324s-38.656 86.324-86.324 86.324zM255.969 176.887c-38.947 0-70.628 31.682-70.628 70.628s31.682 70.628 70.628 70.628 70.628-31.682 70.628-70.628-31.681-70.628-70.628-70.628zM255.969 286.754c-21.673 0-39.238-17.565-39.238-39.238s17.565-39.238 39.238-39.238c21.673 0 39.238 17.565 39.238 39.238s-17.565 39.238-39.238 39.238zM255.969 223.973c-12.982 0-23.543 10.561-23.543 23.543s10.561 23.543 23.543 23.543c12.982 0 23.543-10.561 23.543-23.543s-10.56-23.543-23.543-23.543zM420.8 349.531v31.394c0 8.668-7.035 15.695-15.695 15.695h-298.209c-8.676 0-15.695-7.028-15.695-15.695v-266.818c0-8.668 7.020-15.695 15.695-15.695h298.209c8.66 0 15.695 7.028 15.695 15.695v31.39c8.645 0.016 15.665 7.035 15.665 15.688v62.788c0 8.653-7.020 15.672-15.665 15.688v15.702c8.645 0.016 15.665 7.035 15.665 15.695v62.781c-0.001 8.657-7.020 15.677-15.665 15.692zM420.769 271.059h-31.39v62.781h31.39v-62.781zM122.591 129.802v235.428h266.818v-15.695h-0.031c-8.676 0-15.695-7.028-15.695-15.695v-62.781c0-8.668 7.020-15.695 15.695-15.695h0.031v-15.695h-0.031c-8.676 0-15.695-7.035-15.695-15.695v-62.788c0-8.661 7.020-15.695 15.695-15.695h0.031v-15.688h-266.818zM420.769 161.185h-31.39v62.788h31.39v-62.788z" />
<glyph unicode="&#xe618;" d="M507.077 459.283c-0.031 8.629-7.013 15.618-15.642 15.649h-2.376c-67.402 0-139.954-10.178-213.778-83.994l-46.902-46.902c-75.334-3.035-165.681-55.807-169.597-58.121-4.184-2.468-6.99-6.729-7.603-11.541-0.605-4.813 1.042-9.641 4.475-13.074l103.706-103.706c-12.308 7.082-26.279 10.929-40.863 10.929-21.956 0-42.587-8.552-58.068-24.033-2.138-2.131-4.253-4.522-6.123-6.913-38.294-45.446-47.804-130.758-49.322-147.388-0.421-4.644 1.241-9.227 4.537-12.522 2.959-2.959 6.951-4.599 11.097-4.599 0.475 0 0.95 0.031 1.433 0.062 8.369 0.766 82.829 8.353 131.946 39.176 8.483 4.062 16.086 9.427 22.607 15.941 26.808 26.823 31.092 67.67 13.029 99.076l103.812-103.828c2.951-2.943 6.951-4.583 11.097-4.583 0.367 0 0.743 0 1.118 0.031 4.537 0.323 8.714 2.606 11.443 6.254 2.36 3.142 56.45 76.637 58.987 170.946l46.993 46.994c74.185 74.184 84.208 147.724 83.994 216.146zM154.41 50.441c-4.146-4.138-9.058-7.541-14.584-10.101-0.636-0.291-1.249-0.629-1.832-1.012-30.225-19.251-74.176-28.462-99.314-32.402 4.338 28.922 15.274 81.526 39.951 110.817 1.218 1.548 2.498 3.065 3.961 4.522 9.587 9.594 22.34 14.867 35.904 14.867 13.565 0 26.318-5.273 35.912-14.867 19.798-19.803 19.798-52.021 0.002-71.824zM191.364 307.021l-68.52-68.512-30.134 30.117c21.742 11.204 60.198 29.214 98.654 38.395zM301.959 59.377l-31.314 31.313 70.422 70.429c-8.139-44.863-27.268-82.001-39.108-101.742zM349.558 213.999c-0.008-0.015-0.016-0.015-0.023-0.015l-101.084-101.099-40.61 40.617 82.944 82.937c6.131 6.131 6.131 16.063 0 22.194s-16.062 6.131-22.194 0l-82.944-82.936-40.61 40.602 101.091 101.099c0 0 0 0 0.008 0.016l51.339 51.331c60.895 60.88 121.3 73.157 178.073 74.628-1.219-53.753-11.564-114.955-74.66-178.042l-51.33-51.332zM419.565 387.428c-6.123 6.116-14.155 9.181-22.194 9.181-8.032 0-16.063-3.065-22.195-9.181-12.262-12.262-12.262-32.141 0-44.403 6.131-6.116 14.163-9.181 22.195-9.181 8.039 0 16.070 3.065 22.194 9.181 12.255 12.261 12.262 32.141 0 44.403zM408.461 354.137c-2.959-2.973-6.897-4.598-11.089-4.598s-8.132 1.624-11.097 4.598c-2.966 2.959-4.598 6.897-4.598 11.097 0 4.184 1.632 8.124 4.598 11.082 2.966 2.973 6.905 4.598 11.097 4.598 4.192 0 8.131-1.624 11.097-4.582 2.966-2.973 4.599-6.913 4.599-11.097-0.009-4.201-1.633-8.14-4.607-11.098z" />
<glyph unicode="&#xe619;" d="M396.647 224.027c-21.673 0-39.238-17.565-39.238-39.238 0-73.556-59.845-133.409-133.401-133.409-73.563 0-133.417 59.853-133.417 133.409 0 67.723 51.707 124.611 117.683 132.474v-61.907c0-6.239 3.702-11.887 9.419-14.385 2.023-0.881 4.154-1.31 6.276-1.31 3.885 0 7.717 1.448 10.684 4.199l109.897 102.042c3.196 2.973 5.011 7.135 5.011 11.504 0 4.368-1.816 8.537-5.019 11.503l-109.897 101.995c-4.575 4.246-11.228 5.38-16.952 2.881-5.717-2.498-9.419-8.139-9.419-14.385v-63.31c-109.161-8.138-196.159-100.608-196.159-211.301 0-116.826 95.053-211.885 211.893-211.885 116.833 0 211.877 95.060 211.877 211.885 0 21.673-17.564 39.238-39.238 39.238zM239.665 423.42l71.135-66.015-71.135-66.053v132.068zM224.008 4.294c-99.528 0-180.503 80.974-180.503 180.495 0 93.588 73.005 171.85 164.769 179.789v-15.887c-83.242-8.024-149.074-79.004-149.074-163.902 0-90.868 73.931-164.8 164.807-164.8 90.868 0 164.792 73.931 164.792 164.8 0 4.33 3.518 7.848 7.848 7.848 4.33 0 7.848-3.518 7.848-7.848 0-99.521-80.966-180.495-180.487-180.495z" horiz-adv-x="448" />
<glyph unicode="&#xe61a;" d="M239.454 396.617c21.665 0 39.238 17.581 39.238 39.238 0 21.673-17.573 39.238-39.238 39.238-21.666 0-39.238-17.565-39.238-39.238 0-21.657 17.572-39.238 39.238-39.238zM239.454 459.397c12.982 0 23.543-10.561 23.543-23.543s-10.561-23.543-23.543-23.543c-12.982 0-23.543 10.561-23.543 23.543s10.56 23.543 23.543 23.543zM153.106 373.166c17.32 0 31.383 14.056 31.383 31.39 0 17.335-14.063 31.375-31.383 31.375-17.335 0-31.397-14.040-31.397-31.375 0-17.335 14.063-31.39 31.397-31.39zM153.106 420.236c8.653 0 15.688-7.020 15.688-15.68 0-8.644-7.035-15.695-15.688-15.695-8.66 0-15.702 7.051-15.702 15.695 0 8.661 7.043 15.68 15.702 15.68zM373.461 23.917l-126.19 157.688v144.414h0.031c8.668 0 15.695 7.020 15.695 15.695 0 8.66-7.028 15.695-15.695 15.695h-109.898c-8.668 0-15.695-7.035-15.695-15.695 0-8.675 7.028-15.695 15.695-15.695v-143.571l-126.864-158.531c-7.542-9.426-9.013-22.332-3.786-33.214 5.227-10.867 16.224-17.795 28.295-17.795h313.904c12.070 0 23.068 6.928 28.295 17.795 5.225 10.882 3.754 23.788-3.787 33.214zM168.795 171.427v154.592h47.086v-155.434l45.2-56.482h-138.161l45.875 57.324zM35.048 4.298l62.75 78.415h188.404l62.75-78.415h-313.904z" horiz-adv-x="384" />
<glyph unicode="&#xe61b;" d="M460.038 366.764h-111.737c-8.683 43.047-46.702 75.465-92.301 75.465s-83.619-32.418-92.301-75.465h-111.737c-26.003 0-47.086-21.083-47.086-47.086v-266.822c0-25.995 21.083-47.086 47.086-47.086h408.075c26.002 0 47.086 21.090 47.086 47.086v266.822c0 26.003-21.083 47.086-47.085 47.086zM256 410.838c28.102 0 51.952-18.566 59.93-44.074h-119.86c7.978 25.509 31.827 44.074 59.93 44.074zM475.733 52.857c0-8.645-7.043-15.695-15.695-15.695h-408.076c-8.653 0-15.695 7.050-15.695 15.695v150.161l169.053-36.793c3.28-0.766 6.828-1.486 10.461-2.184v-10.192c0-12.998 10.537-23.543 23.543-23.543h31.39c13.005 0 23.543 10.545 23.543 23.543v9.656c1.448 0.291 2.858 0.49 4.33 0.835l177.146 38.664v-150.147zM231.476 153.848v47.086c0 4.33 3.517 7.848 7.848 7.848h31.39c4.329 0 7.848-3.517 7.848-7.848v-47.086c0-4.322-3.518-7.848-7.848-7.848h-31.39c-4.33 0.001-7.848 3.526-7.848 7.848zM475.733 235.145l-181.476-39.622v5.411c0 13.005-10.538 23.543-23.543 23.543h-31.39c-13.006 0-23.543-10.538-23.543-23.543v-4.844c-1.172 0.261-2.422 0.49-3.564 0.751l-175.95 38.303v84.534c0 8.653 7.042 15.695 15.695 15.695h408.075c8.652 0 15.695-7.042 15.695-15.695v-84.533z" />
<glyph unicode="&#xe61c;" d="M192 475.092c-99.682 0-180.495-80.805-180.495-180.495 0-40.602 14.79-77.556 36.050-108.241l130.834-205.57c1.954-3.388 5.15-6.009 9.073-7.204 1.503-0.444 3.028-0.674 4.537-0.674 0.92 0 1.832 0.092 2.72 0.245 0.629 0.108 1.249 0.261 1.87 0.444 3.794 1.15 6.905 3.663 8.859 6.898l133.618 209.525c-0.031-0.061-0.046-0.092-0.046-0.092 0.008 0 0.046 0.076 0.069 0.122 0.008 0 0.008 0.015 0.016 0.015 20.999 29.505 33.391 65.555 33.391 104.532-0.001 99.69-80.815 180.495-180.496 180.495zM321.891 221.41h-0.038l-129.822-203.594-118.672 186.427c-13.894 20.048-30.463 52.005-30.463 90.354 0 82.216 66.888 149.104 149.104 149.104 82.215 0 149.104-66.888 149.104-149.104 0-25.902-6.599-50.916-19.213-73.187zM192.046 372.767c-43.269 0-78.476-35.207-78.476-78.476s35.207-78.476 78.476-78.476c43.269 0 78.476 35.207 78.476 78.476s-35.207 78.476-78.476 78.476zM192.046 247.436c-25.88 0-46.856 20.983-46.856 46.856 0 25.888 20.976 46.856 46.856 46.856 25.881 0 46.856-20.968 46.856-46.856-0.001-25.873-20.976-46.856-46.856-46.856z" horiz-adv-x="384" />
<glyph unicode="&#xe61d;" d="M466.866 434.859c-26.049 26.056-60.182 39.084-94.324 39.084v-31.39c27.245 0 52.857-10.622 72.13-29.888 39.775-39.774 39.775-104.502 0-144.276l-105.436-105.438-116.527 116.534 72.138 72.146c3.065 3.065 3.065 8.031 0 11.097-3.065 3.065-8.031 3.065-11.097 0l-72.138-72.146-16.653 16.661 105.437 105.421c19.266 19.267 44.886 29.888 72.137 29.888l0.008 31.39h-0.008c-34.141-0.015-68.283-13.028-94.332-39.084l-233.067-233.052c-52.098-52.098-52.098-136.582 0-188.68 26.049-26.041 60.19-39.069 94.332-39.069s68.291 13.029 94.34 39.069l233.060 233.068c52.098 52.098 52.098 136.567 0 188.665zM211.612 35.336c-19.274-19.282-44.894-29.888-72.146-29.888-27.252 0-52.872 10.607-72.138 29.873-39.774 39.79-39.774 104.502 0 144.291l105.437 105.436 16.653-16.66-38.855-38.855c-3.065-3.065-3.065-8.031 0-11.097 1.533-1.533 3.541-2.299 5.548-2.299 2.008 0 4.016 0.766 5.548 2.299l38.855 38.855 116.526-116.534-105.428-105.421zM372.542 473.943v0 0zM83.981 162.951c-23.321-23.313-29.551-59.056-15.504-88.945 1.341-2.835 4.162-4.506 7.112-4.506 1.118 0 2.253 0.246 3.334 0.751 3.924 1.839 5.602 6.514 3.763 10.438-11.25 23.911-6.269 52.511 12.392 71.165 3.065 3.065 3.065 8.031 0 11.097-3.065 3.066-8.031 3.066-11.097 0zM317.041 396.019c-3.065-3.066-3.065-8.032 0-11.097 1.533-1.533 3.541-2.299 5.549-2.299 2.007 0 4.016 0.767 5.548 2.299 18.661 18.669 47.269 23.635 71.172 12.4 3.932-1.855 8.599-0.154 10.446 3.755 1.839 3.924 0.161 8.599-3.763 10.438-29.872 14.070-65.631 7.832-88.952-15.496z" />
<glyph unicode="&#xe61e;" d="M460.038 475.123h-408.076c-25.995 0-47.086-21.083-47.086-47.086v-408.075c0-26.002 21.090-47.086 47.086-47.086h408.075c26.010 0 47.086 21.083 47.086 47.086v408.076c0 26.003-21.075 47.085-47.085 47.085zM51.962 443.733h408.075c8.66 0 15.695-7.042 15.695-15.695v-321.744h-52.696l-55.606 116.112c-2.33 4.874-7.005 8.208-12.385 8.821-5.318 0.583-10.667-1.594-14.039-5.817l-35.866-44.993-84.883 138.192c-2.989 4.858-8.476 7.664-14.117 7.457-5.717-0.268-10.836-3.633-13.35-8.775l-103.384-210.997h-53.139v321.744c0 8.652 7.050 15.695 15.695 15.695zM124.399 106.355l84.040 171.528 81.665-132.956c2.667-4.361 7.311-7.135 12.415-7.45 5.196-0.314 10.039 1.894 13.227 5.879l34.196 42.901 38.272-79.902h-263.815zM460.038 4.267h-408.076c-8.645 0-15.695 7.043-15.695 15.695v54.941h439.466v-54.941c0-8.652-7.036-15.695-15.695-15.695zM365.897 271.086c34.67 0 62.781 28.111 62.781 62.781 0 34.671-28.111 62.781-62.781 62.781-34.671 0-62.781-28.11-62.781-62.781 0-34.671 28.11-62.781 62.781-62.781zM365.897 365.257c17.304 0 31.39-14.078 31.39-31.39 0-17.312-14.086-31.39-31.39-31.39-17.32 0-31.39 14.079-31.39 31.39 0 17.312 14.070 31.39 31.39 31.39z" />
<glyph unicode="&#xe61f;" d="M262.004 475.123h-204.008c-26.003 0-47.086-21.083-47.086-47.086v-408.075c0-26.002 21.083-47.086 47.086-47.086h204.007c26.003 0 47.086 21.083 47.086 47.086v408.076c0 26.003-21.083 47.085-47.085 47.085zM57.996 443.733h204.007c8.653 0 15.695-7.042 15.695-15.695v-31.394h-235.397v31.394c0 8.652 7.043 15.695 15.695 15.695zM277.699 380.949v-282.518h-235.398v282.518h235.398zM262.004 4.267h-204.008c-8.652 0-15.695 7.043-15.695 15.695v62.774h235.397v-62.774c0.001-8.652-7.042-15.695-15.694-15.695zM144.305 412.342h31.39c4.337 0 7.848 3.514 7.848 7.848s-3.51 7.848-7.848 7.848h-31.39c-4.338 0-7.848-3.513-7.848-7.848 0.001-4.333 3.51-7.848 7.848-7.848zM160.015 67.11c-13.013 0-23.543-10.538-23.543-23.543 0-13.006 10.53-23.551 23.543-23.551 13.005 0 23.543 10.545 23.543 23.551 0 13.005-10.538 23.543-23.543 23.543zM160.015 35.712c-4.33 0-7.848 3.525-7.848 7.855 0 4.33 3.518 7.848 7.848 7.848 4.33 0 7.848-3.518 7.848-7.848 0-4.33-3.517-7.855-7.848-7.855z" horiz-adv-x="320" />
<glyph unicode="&#xe620;" d="M493.276 394.68l-66.59 66.598c-18.385 18.378-48.205 18.378-66.589 0l-306.662-306.654c-9.533-9.549-15.68-21.658-17.818-35.054l-30.257-127.293c-1.256-5.303 0.323-10.882 4.177-14.73 3.855-3.862 9.426-5.441 14.729-4.184l127.294 30.272c13.412 2.131 25.52 8.277 35.062 17.81l306.654 306.655c18.384 18.377 18.384 48.203 0 66.58zM146.617 34.626l-1.165-0.184-1.15-0.261-102.509-24.385 24.639 103.659 0.184 1.18c0.698 4.353 2.245 8.292 4.445 11.879l87.435-87.443c-3.572-2.192-7.511-3.755-11.879-4.445zM181.372 60.591l-88.784 88.791 234.171 234.156 22.195-22.194-234.126-234.126 11.097-11.096 234.125 234.124 22.194-22.194-234.124-234.125 11.096-11.096 234.133 234.125 22.194-22.194-234.171-234.171zM471.074 350.293l-33.337-33.337-88.783 88.776 33.337 33.337c6.116 6.131 16.078 6.131 22.194 0l66.59-66.582c6.122-6.116 6.122-16.079-0.001-22.194z" />
<glyph unicode="&#xe621;" d="M500.144 456.746c-4.966 3.319-11.381 3.533-16.561 0.556l-470.826-271.233c-5.464-3.142-8.514-9.242-7.748-15.496 0.767-6.261 5.196-11.45 11.258-13.182l137.494-39.43 64.85-121.070c2.59-4.851 7.533-7.978 13.021-8.269 0.268-0.016 0.544-0.016 0.812-0.016 5.188 0 10.062 2.568 12.997 6.897l47.124 69.563 0.414-0.253 4.568 7.602 2.705 3.985 135.371-38.456c4.392-1.256 9.097-0.536 12.913 1.978 3.809 2.506 6.346 6.545 6.936 11.066l51.5 390.664c0.782 5.921-1.862 11.776-6.828 15.094zM234.015 34.604l-51.799 96.716 154.431 127.638c6.683 5.525 7.618 15.412 2.1 22.094-5.526 6.691-15.428 7.618-22.102 2.1l-160.999-133.080-95.136 27.283 403.101 232.221-192.45-320.131-37.146-54.841zM426.726 73.106l-109.981 31.252 146.146 243.111-36.165-274.363z" />
<glyph unicode="&#xe622;" d="M129.493 310.346c0-4.337 3.509-7.848 7.848-7.848h141.257c4.337 0 7.848 3.51 7.848 7.848 0 4.322-3.51 7.848-7.848 7.848h-141.257c-4.338 0-7.848-3.525-7.848-7.848zM278.598 271.108h-141.257c-4.338 0-7.848-3.525-7.848-7.848 0-4.337 3.509-7.848 7.848-7.848h141.257c4.337 0 7.848 3.51 7.848 7.848-0.001 4.323-3.511 7.848-7.848 7.848zM278.598 224.023h-141.257c-4.338 0-7.848-3.525-7.848-7.848 0-4.337 3.509-7.848 7.848-7.848h141.257c4.337 0 7.848 3.51 7.848 7.848-0.001 4.323-3.511 7.848-7.848 7.848zM207.969 176.937h-70.628c-4.338 0-7.848-3.525-7.848-7.848 0-4.337 3.509-7.848 7.848-7.848h70.628c4.337 0 7.848 3.51 7.848 7.848 0 4.323-3.51 7.848-7.848 7.848zM207.724 412.273c8.668 0 15.695 7.020 15.695 15.695 0 8.66-7.028 15.695-15.695 15.695s-15.695-7.035-15.695-15.695c0-8.675 7.027-15.695 15.695-15.695zM364.952 443.802h-106.809l-3.311 5.027h-0.068c-9.664 15.711-26.969 26.225-46.764 26.225-19.796 0-37.1-10.514-46.764-26.225h-0.077l-3.311-5.027h-106.8c-26.003 0-47.086-21.076-47.086-47.086v-376.685c0-25.995 21.083-47.086 47.086-47.086h313.904c26.002 0 47.086 21.090 47.086 47.086v376.685c0 26.010-21.084 47.086-47.086 47.086zM170.011 433.134l4.591 7.465c7.227 11.741 19.711 18.76 33.399 18.76 13.687 0 26.171-7.020 33.398-18.76l4.66-7.465h0.322l34.456-52.251h-145.719l34.486 52.251h0.407zM309.988 365.188l-10.346 15.68h18.194c8.652 0 15.695-7.035 15.695-15.695v-298.209c0-8.645-7.043-15.695-15.695-15.695h-219.787c-8.652 0-15.695 7.050-15.695 15.695v298.209c0 8.66 7.043 15.695 15.695 15.695h18.263l-10.361-15.68h204.037zM380.647 20.031c0-8.645-7.043-15.695-15.695-15.695h-313.904c-8.653 0-15.695 7.050-15.695 15.695v376.685c0 8.66 7.042 15.695 15.695 15.695h86.078l-10.461-15.848h-28.616c-17.335 0-31.39-14.040-31.39-31.39v-298.209c0-17.335 14.055-31.39 31.39-31.39h219.787c17.335 0 31.39 14.055 31.39 31.39v298.209c0 17.35-14.056 31.39-31.39 31.39h-28.54l-10.453 15.848h86.109c8.652 0 15.695-7.035 15.695-15.695v-376.685z" horiz-adv-x="416" />
<glyph unicode="&#xe623;" d="M475.702 129.855v235.375c0 26.003-21.083 47.086-47.086 47.086h-345.294c-26.003 0-47.086-21.083-47.086-47.086v-235.375h-31.359v-47.086c0-25.995 21.083-47.086 47.086-47.086h408.075c26.003 0 47.086 21.090 47.086 47.086v47.086h-31.422zM67.627 365.169v0.061c0 8.656 7.043 15.695 15.695 15.695h345.294c8.653 0 15.695-7.039 15.695-15.695v-235.374h-15.695v203.984c0 8.668-7.028 15.695-15.695 15.695h-313.904c-8.668 0-15.695-7.028-15.695-15.695v-203.984h-15.695v235.313zM412.921 333.84v-203.984h-313.904v203.984h313.904zM475.733 82.77c0-8.652-7.042-15.695-15.695-15.695h-408.076c-8.652 0-15.695 7.043-15.695 15.695v15.695h439.466v-15.695zM256 357.24c4.338 0 7.848 3.514 7.848 7.848s-3.509 7.848-7.848 7.848c-4.337 0-7.848-3.513-7.848-7.848 0-4.333 3.511-7.848 7.848-7.848z" />
<glyph unicode="&#xe624;" d="M287.114 412.342h-141.257v-109.866h141.257v109.866zM271.419 318.171h-109.866v78.476h109.866v-78.476zM460.038 475.123h-329.6c-26.003 0-47.086-21.083-47.086-47.086v-47.090h-54.971c-12.99-0.019-23.504-10.549-23.504-23.539v-337.447c0-26.003 21.083-47.086 47.086-47.086h408.075c26.002 0 47.086 21.083 47.086 47.086v408.077c-0.001 26.003-21.084 47.085-47.086 47.085zM475.733 19.962c0-8.652-7.043-15.695-15.695-15.695h-408.076c-8.653 0-15.695 7.043-15.695 15.695v329.596h47.086v-298.148c0-8.667 7.028-15.695 15.695-15.695 8.668 0 15.695 7.028 15.695 15.695v376.628c0 8.653 7.042 15.695 15.695 15.695h329.599c8.652 0 15.695-7.042 15.695-15.695v-408.076zM279.512 255.386h-125.531c-4.338 0-7.848-3.513-7.848-7.848 0-4.333 3.509-7.848 7.848-7.848h125.531c4.337 0 7.848 3.514 7.848 7.848 0 4.335-3.51 7.848-7.848 7.848zM279.512 192.61h-125.531c-4.338 0-7.848-3.513-7.848-7.848 0-4.333 3.509-7.848 7.848-7.848h125.531c4.337 0 7.848 3.514 7.848 7.848s-3.51 7.848-7.848 7.848zM279.512 129.833h-125.531c-4.338 0-7.848-3.513-7.848-7.848 0-4.333 3.509-7.848 7.848-7.848h125.531c4.337 0 7.848 3.514 7.848 7.848s-3.51 7.848-7.848 7.848zM279.512 67.056h-125.531c-4.338 0-7.848-3.514-7.848-7.848s3.509-7.848 7.848-7.848h125.531c4.337 0 7.848 3.513 7.848 7.848 0 4.334-3.51 7.848-7.848 7.848zM436.448 255.386h-125.53c-4.337 0-7.848-3.513-7.848-7.848 0-4.333 3.51-7.848 7.848-7.848h125.531c4.337 0 7.848 3.514 7.848 7.848-0.001 4.335-3.511 7.848-7.849 7.848zM436.448 318.171h-125.53c-4.337 0-7.848-3.513-7.848-7.848 0-4.333 3.51-7.848 7.848-7.848h125.531c4.337 0 7.848 3.514 7.848 7.848-0.001 4.335-3.511 7.848-7.849 7.848zM436.448 380.952h-125.53c-4.337 0-7.848-3.513-7.848-7.848 0-4.333 3.51-7.848 7.848-7.848h125.531c4.337 0 7.848 3.514 7.848 7.848-0.001 4.335-3.511 7.848-7.849 7.848zM436.448 192.61h-125.53c-4.337 0-7.848-3.513-7.848-7.848 0-4.333 3.51-7.848 7.848-7.848h125.531c4.337 0 7.848 3.514 7.848 7.848-0.001 4.334-3.511 7.848-7.849 7.848zM436.448 129.833h-125.53c-4.337 0-7.848-3.513-7.848-7.848 0-4.333 3.51-7.848 7.848-7.848h125.531c4.337 0 7.848 3.514 7.848 7.848-0.001 4.334-3.511 7.848-7.849 7.848zM436.448 67.056h-125.53c-4.337 0-7.848-3.514-7.848-7.848s3.51-7.848 7.848-7.848h125.531c4.337 0 7.848 3.513 7.848 7.848-0.001 4.334-3.511 7.848-7.849 7.848z" />
<glyph unicode="&#xe625;" d="M396.632 80.475v119.952c0 34.617-28.164 62.781-62.781 62.781h-94.171v104.325c22.677 6.759 39.238 27.75 39.238 52.626 0 30.344-24.608 54.937-54.933 54.937-30.34 0-54.933-24.593-54.933-54.937 0-24.88 16.554-45.875 39.238-52.63v-104.322h-94.171c-34.617 0-62.781-28.163-62.781-62.781v-119.955c-22.669-6.767-39.207-27.751-39.207-52.627 0-30.336 24.593-54.933 54.933-54.933 30.325 0 54.933 24.597 54.933 54.933 0 24.896-16.576 45.894-39.268 52.638v119.945c0 17.305 14.079 31.39 31.39 31.39h94.171v-151.346c-22.684-6.76-39.238-27.751-39.238-52.635 0-30.336 24.593-54.933 54.933-54.933 30.325 0 54.933 24.597 54.933 54.933 0 24.884-16.561 45.875-39.238 52.631v151.35h94.171c17.312 0 31.39-14.086 31.39-31.39v-119.947c-22.684-6.76-39.238-27.751-39.238-52.635 0-30.336 24.593-54.933 54.933-54.933 30.325 0 54.933 24.597 54.933 54.933 0.001 24.883-16.56 45.874-39.237 52.63zM200.442 420.159c0 12.982 10.56 23.547 23.543 23.547 12.982 0 23.543-10.564 23.543-23.547s-10.561-23.543-23.543-23.543c-12.983 0.001-23.543 10.561-23.543 23.543zM90.606 27.845c0-12.982-10.561-23.543-23.543-23.543s-23.543 10.56-23.543 23.543c0 12.982 10.561 23.547 23.543 23.547s23.543-10.565 23.543-23.547zM247.528 27.837c0-12.982-10.561-23.543-23.543-23.543s-23.543 10.561-23.543 23.543c0 12.986 10.56 23.547 23.543 23.547 12.982-0.001 23.543-10.561 23.543-23.547zM380.937 4.302c-12.982 0-23.543 10.561-23.543 23.543 0 12.982 10.56 23.547 23.543 23.547 12.982 0 23.543-10.564 23.543-23.547 0-12.983-10.561-23.543-23.543-23.543z" horiz-adv-x="448" />
<glyph unicode="&#xe626;" d="M249.677 417.887c-21.597 15.634-42.013 30.409-42.013 41.422 0 8.668-7.020 15.695-15.695 15.695-8.66 0-15.695-7.028-15.695-15.695v-351.249c-18.331 13.527-43.162 21.888-70.566 21.888-56.359 0-102.019-35.131-102.019-78.476s45.66-78.476 102.019-78.476c56.343 0 102.019 35.131 102.019 78.476 0 1.065-0.154 2.1-0.215 3.157 0.046 0.506 0.153 0.997 0.153 1.518v199.179c32.648-1.074 110.817-10.116 143.127-70.261 2.79-5.18 8.154-8.276 13.825-8.276 1.273 0 2.56 0.153 3.832 0.475 6.974 1.763 11.863 8.031 11.863 15.22-0.001 130.849-78.614 187.744-130.635 225.403zM105.707 4.386c-38.288 0-70.628 21.566-70.628 47.086 0 25.52 32.341 47.086 70.628 47.086s70.628-21.565 70.628-47.086c0.001-25.52-32.34-47.086-70.628-47.086zM207.664 286.777v123.362c7.143-5.74 15.113-11.526 23.605-17.68 41.889-30.318 96.838-70.092 112.993-150.737-45.262 37.821-107.184 44.274-136.598 45.055z" horiz-adv-x="384" />
<glyph unicode="&#xe627;" d="M496.831 325.020l-235.428 86.34c-3.494 1.272-7.311 1.272-10.805 0l-235.428-86.34c-6.185-2.269-10.293-8.154-10.293-14.73 0-6.59 4.108-12.476 10.293-14.745l13.25-4.858v-194.381c-4.675-2.729-7.848-7.725-7.848-13.519v-31.405c0-8.661 7.028-15.695 15.695-15.695s15.695 7.035 15.695 15.695v31.405c0 5.794-3.173 10.79-7.848 13.519v188.633l47.055-17.258v-122.128c0-60.682 49.186-109.866 109.866-109.866h109.866c60.681 0 109.866 49.185 109.866 109.866v122.112l76.062 27.88c6.185 2.269 10.292 8.154 10.292 14.745 0.002 6.576-4.105 12.462-10.29 14.73zM389.379 145.553c0-43.269-35.207-78.476-78.476-78.476h-109.867c-43.269 0-78.476 35.207-78.476 78.476v110.617l128.038-46.933c1.747-0.643 3.571-0.966 5.402-0.966s3.655 0.323 5.403 0.966l127.976 46.917v-110.601zM256 240.689l-189.837 69.601 189.837 69.617 189.837-69.617-189.837-69.601z" />
<glyph unicode="&#xe628;" d="M460.038 459.428h-408.076c-26.003 0-47.086-21.075-47.086-47.086v-298.209c0-25.995 21.083-47.086 47.086-47.086h149.074v-47.086h-39.238c-8.668 0-15.695-7.020-15.695-15.695 0-8.66 7.028-15.695 15.695-15.695h188.342c8.668 0 15.695 7.035 15.695 15.695 0 8.676-7.028 15.695-15.695 15.695h-39.238v47.086h149.135c26.002 0 47.086 21.090 47.086 47.086v298.209c0 26.011-21.083 47.086-47.085 47.086zM51.962 428.038h408.075c8.652 0 15.695-7.035 15.695-15.695v-0.061l-439.465 0.061c0 8.659 7.043 15.695 15.695 15.695zM475.733 396.586v-235.428h-439.466v235.428h439.466zM279.512 19.962h-47.086v47.086h47.086v-47.086zM460.038 98.438h-408.076c-8.653 0-15.695 7.035-15.695 15.695v31.329h439.466v-31.329c0-8.659-7.043-15.695-15.695-15.695z" />
<glyph unicode="&#xe629;" d="M460.038 458.242h-408.076c-26.003 0-47.086-21.079-47.086-47.086v-374.313c0-26.003 21.083-47.086 47.086-47.086h408.075c26.002 0 47.086 21.083 47.086 47.086v374.314c0 26.006-21.083 47.085-47.085 47.085zM36.267 52.531v31.329h439.466v-31.329h-439.466zM36.267 99.555v31.39h439.466v-31.39h-439.466zM36.267 146.641v31.39h439.466v-31.39h-439.466zM36.267 193.726v16.124c4.92-1.74 10.185-2.736 15.695-2.736h408.075c5.51 0 10.775 0.996 15.695 2.736v-16.124h-439.465zM460.038 21.148h-408.076c-8.653 0-15.695 7.035-15.695 15.687h439.466c0-8.651-7.043-15.687-15.695-15.687zM475.733 254.201c0-8.653-7.043-15.695-15.695-15.695h-408.076c-8.653 0-15.695 7.042-15.695 15.695v156.956c0 8.656 7.042 15.695 15.695 15.695h408.075c8.652 0 15.695-7.039 15.695-15.695v-156.956zM255.969 413.467c-43.338 0-78.476-35.138-78.476-78.472 0-43.342 35.138-78.48 78.476-78.48 43.346 0 78.476 35.138 78.476 78.48 0 43.334-35.13 78.472-78.476 78.472zM255.969 272.21c-34.617 0-62.781 28.164-62.781 62.785 0 34.613 28.163 62.777 62.781 62.777 34.617 0 62.781-28.164 62.781-62.777 0-34.621-28.164-62.785-62.781-62.785zM138.286 280.050h-62.781c-4.338 0-7.848-3.51-7.848-7.848 0-4.33 3.509-7.848 7.848-7.848h62.781c4.337 0 7.848 3.518 7.848 7.848 0 4.338-3.511 7.848-7.848 7.848zM138.286 405.619h-62.781c-4.338 0-7.848-3.514-7.848-7.848s3.509-7.848 7.848-7.848h62.781c4.337 0 7.848 3.513 7.848 7.848 0 4.334-3.511 7.848-7.848 7.848zM436.464 280.050h-62.781c-4.338 0-7.848-3.51-7.848-7.848 0-4.33 3.509-7.848 7.848-7.848h62.781c4.337 0 7.848 3.518 7.848 7.848 0 4.338-3.51 7.848-7.848 7.848zM436.464 405.619h-62.781c-4.338 0-7.848-3.514-7.848-7.848s3.509-7.848 7.848-7.848h62.781c4.337 0 7.848 3.513 7.848 7.848 0 4.334-3.51 7.848-7.848 7.848zM244.129 351.36c1.977 9.791 17.787 7.717 24.754 3.295 5.648-4.142 12.423 4.047 6.023 9.223-3.073 2.364-6.981 3.954-11.166 4.809 0.008 0.126 0.077 0.238 0.077 0.368v5.169c0 4.333-3.51 7.848-7.848 7.848-4.338 0-7.848-3.514-7.848-7.848v-5.169c0-0.249 0.122-0.46 0.137-0.701-8.238-2.089-15.051-7.354-16.086-16.052-2.912-26.73 36.242-18.354 37.461-32.283-1.41-13.366-21.267-9.411-28.984-4.143-3.203 2.637-5.931 1.79-8.376-0.658-1.694-2.541-1.793-6.683 1.318-9.223 3.579-2.959 8.821-5.016 14.53-6.005v-4.238c0-4.33 3.509-7.848 7.848-7.848 4.337 0 7.848 3.517 7.848 7.848v4.46c9.71 2.104 17.741 8.147 18.055 19.523 0.659 25.039-40.287 16.191-37.743 31.625z" />
<glyph unicode="&#xe62a;" d="M160 129.833c52.006 0 94.171 42.162 94.171 94.171v156.952c0 52.010-42.165 94.171-94.171 94.171-52.005 0-94.171-42.161-94.171-94.171v-156.952c0-52.009 42.166-94.171 94.171-94.171zM97.219 380.956c0 34.617 28.164 62.781 62.781 62.781s62.781-28.163 62.781-62.781v-156.952c0-34.617-28.163-62.781-62.781-62.781-34.617 0-62.781 28.164-62.781 62.781v156.952zM301.257 271.082c-8.668 0-15.695-7.028-15.695-15.695v-31.383c0-69.233-56.328-125.562-125.562-125.562-69.233 0-125.562 56.328-125.562 125.562v31.383c0 8.668-7.028 15.695-15.695 15.695s-15.695-7.028-15.695-15.695v-31.383c0-81.246 62.053-148.258 141.257-156.159v-63.582h-78.445c-8.667 0-15.695-7.028-15.695-15.695s7.028-15.695 15.695-15.695h188.342c8.668 0 15.695 7.028 15.695 15.695 0 8.668-7.028 15.695-15.695 15.695h-78.507v63.582c79.204 7.901 141.257 74.912 141.257 156.159v31.383c0 8.667-7.028 15.695-15.695 15.695z" horiz-adv-x="320" />
<glyph unicode="&#xe62b;" d="M467.21 471.169h-422.421c-22.041 0-39.912-17.872-39.912-39.913v-296.799c0-22.041 17.871-39.912 39.912-39.912h55.454l113.116-113.116c3.004-3.004 7.012-4.598 11.096-4.598 2.024 0 4.062 0.399 6.009 1.195 5.862 2.437 9.686 8.154 9.686 14.5v102.019h227.060c22.041 0 39.913 17.871 39.913 39.912v296.799c0 22.041-17.872 39.913-39.913 39.913zM475.733 134.457c0-4.69-3.824-8.522-8.522-8.522h-227.060c-17.335 0-31.39-14.055-31.39-31.39v-64.122l-86.324 86.316c-5.886 5.894-13.871 9.197-22.194 9.197h-55.454c-4.698 0-8.522 3.832-8.522 8.522v296.798c0 4.705 3.824 8.522 8.522 8.522h422.421c4.698 0 8.522-3.817 8.522-8.522v-296.799zM365.836 376.998h-219.702c-8.668 0-15.695-7.020-15.695-15.695 0-8.66 7.027-15.695 15.695-15.695h219.702c8.668 0 15.695 7.035 15.695 15.695 0 8.674-7.028 15.695-15.695 15.695zM365.836 298.522h-219.702c-8.668 0-15.695-7.020-15.695-15.695 0-8.66 7.027-15.695 15.695-15.695h219.702c8.668 0 15.695 7.035 15.695 15.695 0 8.674-7.028 15.695-15.695 15.695zM271.665 220.046h-125.531c-8.668 0-15.695-7.028-15.695-15.695 0-8.668 7.027-15.695 15.695-15.695h125.531c8.668 0 15.695 7.028 15.695 15.695s-7.028 15.695-15.695 15.695z" />
<glyph unicode="&#xe62c;" d="M494.026 469.172c-5.418 3.897-11.848 5.92-18.354 5.92-3.334 0-6.691-0.533-9.933-1.613l-131.823-43.974-147.426 44.262c-2.943 0.885-5.985 1.325-9.027 1.325-3.357 0-6.714-0.54-9.933-1.613l-141.134-47.085c-12.814-4.277-21.458-16.27-21.458-29.777v-392.319c0-10.089 4.851-19.569 13.043-25.47 5.41-3.897 11.848-5.92 18.347-5.92 3.342 0 6.69 0.533 9.932 1.613l131.708 43.939 147.456-44.231c2.943-0.881 5.985-1.322 9.021-1.322 3.356 0 6.706 0.541 9.932 1.613l141.226 47.086c12.814 4.268 21.458 16.266 21.458 29.777v392.319c0.001 10.090-4.85 19.57-13.035 25.47zM192.912 439.062l125.592-37.705v-392.277l-125.592 37.671v392.311zM36.328 4.298v392.319l125.194 41.767v-392.319l-125.194-41.767zM475.672 51.383l-125.777-41.935v392.299l125.777 41.955v-392.319z" />
<glyph unicode="&#xe62d;" d="M460.038 404.495h-408.076c-26.003 0-47.086-21.083-47.086-47.086v-266.818c0-26.002 21.082-47.086 47.086-47.086h408.075c26.002 0 47.086 21.083 47.086 47.086v266.818c0 26.003-21.083 47.086-47.085 47.086zM471.946 80.494l-128.703 128.708 132.49 132.489v-251.1c0-3.862-1.457-7.357-3.787-10.097zM36.267 90.591v251.039l131.493-131.497-128.581-128.581c-1.824 2.56-2.912 5.667-2.912 9.039zM189.955 187.943l39.138-39.138c7.173-7.181 16.722-11.135 26.876-11.135s19.703 3.954 26.876 11.135l38.203 38.204 112.104-112.112h-356.237l113.040 113.046zM460.038 373.104c0.843 0 1.663-0.122 2.467-0.249l-201.854-201.857c-1.686-1.69-3.655-1.938-4.682-1.938-1.027 0-2.997 0.249-4.683 1.938l-201.845 201.854c0.827 0.13 1.655 0.253 2.522 0.253h408.075z" />
<glyph unicode="&#xe62e;" d="M239.086 365.287v-203.643c0-25.965-21.121-47.086-47.086-47.086s-47.086 21.121-47.086 47.086v203.643h-141.256v-204.042c0-104.026 84.324-188.342 188.342-188.342 104.019 0 188.342 84.316 188.342 188.342v204.042h-141.256zM348.952 333.897v-47.151h-78.476v47.151h78.476zM113.524 333.897v-47.151h-78.476v47.151h78.476zM192 4.294c-86.546 0-156.952 70.398-156.952 156.952v94.11h78.476v-93.711c0-43.269 35.207-78.476 78.476-78.476s78.476 35.207 78.476 78.476v93.711h78.476v-94.11c0-86.554-70.406-156.952-156.952-156.952zM328.613 407.718l-62.781 62.781c-2.966 2.966-6.904 4.598-11.096 4.598s-8.132-1.632-11.097-4.598l-51.669-51.665-51.669 51.665c-2.966 2.966-6.904 4.598-11.097 4.598-4.192 0-8.132-1.632-11.097-4.598l-62.781-62.781c-6.123-6.12-6.123-16.075 0-22.198 2.966-2.959 6.905-4.599 11.097-4.599 4.192 0 8.131 1.64 11.097 4.599l51.684 51.684 51.669-51.669c2.966-2.958 6.904-4.598 11.096-4.598s8.132 1.64 11.097 4.598l51.669 51.669 51.684-51.684c2.966-2.959 6.905-4.599 11.097-4.599s8.131 1.64 11.096 4.599c6.124 6.123 6.124 16.078 0.001 22.198z" horiz-adv-x="384" />
<glyph unicode="&#xe62f;" d="M465.663 404.956c-26.73 26.723-62.282 41.446-100.087 41.446-37.813 0-73.357-14.722-100.095-41.449l-9.48-9.48-9.48 9.484c-26.738 26.723-62.282 41.446-100.095 41.446-37.805 0-73.356-14.722-100.087-41.449-55.194-55.194-55.194-144.996 0-200.183l198.566-198.573c2.943-2.943 6.935-4.598 11.097-4.598s8.154 1.655 11.097 4.598l198.565 198.573c55.193 55.185 55.193 144.988-0.001 200.185zM443.469 226.964l-187.469-187.469-187.469 187.469c-42.947 42.955-42.947 112.84 0 155.791 20.807 20.799 48.465 32.257 77.894 32.257s57.094-11.457 77.902-32.253l20.577-20.584c5.886-5.886 16.308-5.886 22.194 0l20.576 20.58c20.807 20.799 48.473 32.257 77.902 32.257s57.087-11.457 77.894-32.253c42.946-42.955 42.946-112.84-0.001-155.795zM449.347 324.974c-3.686 15.565-11.633 29.789-22.975 41.143-16.362 16.347-38.112 25.352-61.248 25.352-4.337 0-7.848-3.514-7.848-7.848 0-4.334 3.51-7.848 7.848-7.848 18.944 0 36.755-7.373 50.151-20.758 9.281-9.288 15.787-20.929 18.807-33.658 0.851-3.61 4.070-6.040 7.626-6.040 0.597 0 1.211 0.069 1.816 0.211 4.213 1.001 6.827 5.231 5.823 9.446zM145.973 391.469c-4.337 0-7.848-3.514-7.848-7.848s3.51-7.848 7.848-7.848c18.952 0 36.763-7.373 50.151-20.758 1.533-1.533 3.541-2.299 5.549-2.299 2.007 0 4.016 0.766 5.548 2.299 3.065 3.066 3.065 8.032 0 11.097-16.347 16.351-38.104 25.357-61.248 25.357z" />
<glyph unicode="&#xe630;" d="M495.558 39.927l-130.764 130.772c20.546 31.007 32.532 68.176 32.532 108.165 0 108.349-87.841 196.19-196.19 196.19-108.349 0-196.19-87.841-196.19-196.19 0-108.349 87.841-196.19 196.19-196.19 39.989 0 77.158 11.994 108.172 32.533l130.765-130.773c7.656-7.656 17.703-11.488 27.743-11.488s20.087 3.832 27.742 11.488c15.328 15.319 15.328 40.166 0 55.493zM201.136 114.065c-90.868 0-164.8 73.931-164.8 164.8s73.931 164.8 164.8 164.8 164.8-73.931 164.8-164.8c-0.001-90.869-73.932-164.8-164.8-164.8zM473.357 6.62c-1.893-1.885-4.054-2.284-5.54-2.284-1.479 0-3.648 0.399-5.549 2.291l-128.090 128.091c3.847 3.548 7.549 7.257 11.096 11.097l128.091-128.090c1.901-1.893 2.299-4.062 2.299-5.541 0-1.486-0.399-3.648-2.307-5.564zM154.303 412.174c-39.721-13.94-70.928-44.58-85.619-84.048-1.51-4.062 0.56-8.584 4.621-10.086 0.904-0.337 1.824-0.505 2.736-0.505 3.181 0 6.177 1.962 7.357 5.119 13.059 35.084 40.794 62.321 76.101 74.713 4.093 1.434 6.246 5.909 4.805 10.001-1.433 4.093-5.924 6.239-10.001 4.806z" />
<glyph unicode="&#xe631;" d="M223.992 192.602c-25.995 0-47.078-21.076-47.078-47.071 0-20.492 13.12-37.889 31.39-44.357v-26.225c0-8.66 7.028-15.695 15.695-15.695 8.668 0 15.695 7.035 15.695 15.695v26.225c18.27 6.484 31.39 23.865 31.39 44.357 0.002 25.996-21.089 47.071-47.092 47.071zM223.992 129.836c-8.652 0-15.687 7.035-15.687 15.695 0 8.645 7.035 15.68 15.687 15.68 8.66 0 15.703-7.035 15.703-15.68 0-8.659-7.043-15.695-15.703-15.695zM396.647 302.469h-47.116v47.101c0 69.341-56.213 125.562-125.562 125.562s-125.562-56.22-125.562-125.562v-47.101h-47.054c-26.003 0-47.086-21.076-47.086-47.086v-235.428c0-25.995 21.083-47.086 47.086-47.086h345.294c26.002 0 47.086 21.090 47.086 47.086v235.428c0 26.010-21.084 47.086-47.086 47.086zM129.798 349.569c0 51.914 42.242 94.171 94.171 94.171s94.171-42.257 94.171-94.171v-47.101h-15.665v47.055c0 43.361-35.145 78.507-78.507 78.507-43.361 0-78.507-35.145-78.507-78.507v-47.055h-15.665v47.101zM286.781 302.469h-125.623v47.055c0 34.639 28.179 62.811 62.811 62.811 34.631 0 62.811-28.172 62.811-62.811v-47.055zM412.342 19.955c0-8.645-7.043-15.695-15.695-15.695h-345.294c-8.653 0-15.695 7.050-15.695 15.695v235.428c0 8.66 7.042 15.695 15.695 15.695h345.294c8.652 0 15.695-7.035 15.695-15.695v-235.428z" horiz-adv-x="448" />
<glyph unicode="&#xe632;" d="M418.135 422.006l-19.428 19.42c-18.523 18.531-43.162 28.739-69.356 28.739-26.201 0-50.841-10.207-69.363-28.739l-116.534-116.534c-18.194-18.193-28.394-42.38-28.732-68.099-0.023-2.177 0.391-4.246 1.172-6.146l-85.977-85.987c-18.531-18.515-28.732-43.162-28.739-69.355 0-26.195 10.208-50.841 28.739-69.356l19.42-19.435c19.129-19.113 44.242-28.677 69.364-28.677 25.121 0 50.243 9.565 69.363 28.677l116.527 116.534c19.711 19.711 30.133 46.963 28.593 74.798-0.008 0.153-0.053 0.275-0.069 0.414l85.021 85.021c38.248 38.255 38.248 100.484-0.001 138.725zM395.941 305.473l-116.533-116.534c-26.011-25.995-68.33-25.995-94.34 0l-19.42 19.42c-6.131 6.131-16.063 6.131-22.194 0-6.131-6.116-6.131-16.063 0-22.194l19.42-19.42c19.121-19.114 44.242-28.677 69.363-28.677 21.489 0 42.948 7.050 60.682 21.044-2.889-5.012-6.361-9.702-10.523-13.871l-116.526-116.534c-26.011-25.995-68.329-25.995-94.34 0l-19.42 19.435c-12.599 12.599-19.542 29.352-19.542 47.163 0 17.81 6.943 34.563 19.542 47.162l116.526 116.533c26.011 26.011 68.33 25.995 94.34 0l19.42-19.42c6.131-6.131 16.063-6.131 22.195 0 6.131 6.131 6.131 16.063 0 22.194l-19.42 19.435c-35.513 35.498-91.687 37.982-130.152 7.541 2.896 5.043 6.422 9.748 10.629 13.948l116.534 116.534c12.599 12.599 29.352 19.542 47.17 19.542 17.811 0 34.563-6.943 47.163-19.542l19.428-19.42c26.001-26.010 26.001-68.329-0.002-94.339z" horiz-adv-x="448" />
<glyph unicode="&#xe633;" d="M507.108 235.741c0 25.965-21.122 47.086-47.086 47.086h-123.155c2.375 18.392 5.472 48.258 5.472 78.476 0 59.317-32.571 86.324-62.811 86.324-39.238 0-39.238-41.553-39.238-94.171 0-37.89-58.98-96.21-89.481-122.328-6.177 2.973-13.059 4.675-20.354 4.675h-78.477c-26.011 0-47.086-21.076-47.086-47.086l15.695-141.257c2.988-24.746 21.075-47.086 47.086-47.086h62.781c20.277 0 37.506 12.844 44.127 30.815l25.428-13.327c2.238-1.18 4.752-1.793 7.281-1.793h209.555c23.803 0 43.177 19.358 43.177 43.162 0 6.667-1.564 12.952-4.277 18.592 11.986 7.679 19.972 21.090 19.972 36.341 0 7.181-1.794 13.933-4.905 19.894 12.415 8.492 20.6 22.754 20.6 38.901 0 8.399-2.238 16.285-6.116 23.121 13.090 8.377 21.812 23 21.812 39.661zM130.454 31.764h-62.781c-8.814 0-14.791 10.039-15.895 19.159l-15.45 139.073c0.659 8.054 7.418 14.415 15.65 14.415h78.476c8.644 0 15.695-7.035 15.695-15.695v-130.436c-0.292-1.732-0.292-3.449 0-5.135v-5.686c0-8.644-7.051-15.695-15.695-15.695zM416.845 47.46h-205.693l-33.613 17.626v123.63c0 7.188-1.656 13.978-4.537 20.071 27.712 23.919 98.678 90.439 98.678 144.667 0 32.294 0 62.781 7.848 62.781 15.603 0 31.421-18.868 31.421-54.933 0-45.154-7.587-91.122-7.664-91.581-0.767-4.552 0.521-9.212 3.495-12.737 2.989-3.517 7.373-5.548 11.986-5.548h141.257c8.644 0 15.695-7.035 15.695-15.695 0-8.653-7.051-15.695-15.695-15.695h-17.443c-8.676 0-15.695-7.020-15.695-15.695 0-8.66 7.020-15.695 15.695-15.695h1.671c0.031 0 0.046 0 0.077 0 8.644 0 15.695-7.043 15.695-15.695 0-8.66-7.051-15.695-15.695-15.695h-10.576c-0.399 0.015-0.797 0.061-1.211 0.061-0.199 0-0.399-0.054-0.598-0.061h-5.043c-8.675 0-15.695-7.028-15.695-15.695 0-8.668 7.020-15.695 15.695-15.695h6.254c6.207-0.322 11.174-5.426 11.174-11.71 0-6.484-5.288-11.771-11.787-11.771h-15.235c-0.046 0-0.092-0.016-0.153-0.016-0.093 0-0.199 0.016-0.307 0.016-8.66 0-15.695-7.028-15.695-15.695s7.035-15.695 15.695-15.695c6.499 0 11.787-5.281 11.787-11.771-0.001-6.487-5.29-11.774-11.788-11.774z" />
<glyph unicode="&#xe634;" d="M140.967-27.123c-2.038 0-4.1 0.399-6.069 1.227-6.744 2.835-10.637 9.948-9.388 17.151l28.578 164.447-129.555-10.292c-6.069-0.483-11.971 2.644-14.959 8.016-2.981 5.372-2.568 11.986 1.081 16.937l219.702 298.373c4.315 5.863 12.101 7.986 18.806 5.123 6.699-2.862 10.546-9.959 9.288-17.136l-28.601-163.371 128.842 16.676c6.154 0.797 12.285-2.149 15.488-7.518 3.211-5.368 2.92-12.128-0.728-17.204l-219.732-305.891c-3.019-4.208-7.817-6.538-12.753-6.538zM173.017 188.648c4.399 0 8.614-1.847 11.603-5.128 3.265-3.586 4.69-8.475 3.863-13.258l-20.324-116.948 158.707 220.944-114.136-14.775c-4.982-0.643-9.909 1.111-13.358 4.721-3.448 3.602-4.981 8.629-4.115 13.55l20.753 118.557-159.703-216.882 115.468 9.165c0.415 0.039 0.828 0.054 1.242 0.054z" horiz-adv-x="384" />
<glyph unicode="&#xe635;" d="M502.525 470.518c-3.426 3.433-8.216 5.073-13.059 4.475-11.833-1.487-291.334-37.69-411.8-145.748-3.188-2.805-6.323-5.686-9.388-8.752-74.613-74.612-78.116-193.767-10.622-272.642l-48.181-48.174c-6.131-6.131-6.131-16.062 0-22.194 3.066-3.065 7.082-4.598 11.097-4.598s8.031 1.533 11.097 4.598l48.173 48.174c36.356-31.176 82.124-48.235 130.535-48.235 0.008 0 0.008 0 0.016 0 53.668 0 104.134 20.907 142.1 58.857 3.057 3.065 5.963 6.207 8.668 9.288 108.134 120.566 144.353 400.059 145.84 411.908 0.605 4.797-1.050 9.625-4.476 13.043zM337.687 66.412c-2.376-2.697-4.821-5.364-7.396-7.939-32.027-32.018-74.606-49.66-119.898-49.66h-0.008c-40.028 0-77.902 13.825-108.273 39.116l58.305 58.305h158.333c8.668 0 15.695 7.035 15.695 15.695 0 8.675-7.028 15.695-15.695 15.695h-126.941l86.324 86.324 95.551 0.015c8.668 0 15.695 7.020 15.695 15.695 0 8.66-7.028 15.695-15.695 15.695l-64.16-0.015 98.785 98.785c6.131 6.131 6.131 16.062 0 22.194-6.131 6.131-16.063 6.131-22.194 0l-98.754-98.754v64.099c0 8.66-7.028 15.695-15.695 15.695-8.668 0-15.695-7.035-15.695-15.695v-95.49l-86.293-86.293v126.849c0 8.66-7.027 15.695-15.695 15.695s-15.695-7.035-15.695-15.695v-158.24l-58.351-58.351c-55.293 66.566-51.822 165.795 10.522 228.147 2.59 2.59 5.265 5.043 8.062 7.511 95.227 85.404 307.495 124.55 374.322 135.049-10.506-66.827-49.66-279.111-135.156-374.432z" />
<glyph unicode="&#xe636;" d="M316.952 317.987c0 86.68-70.268 156.952-156.952 156.952s-156.952-70.272-156.952-156.952c0-28.693 7.824-55.505 21.274-78.649l-0.268 0.169 62.099-114.522 0.016 0.061c3.218-6.717 8.039-12.476 13.878-16.974-6.452-5.024-10.675-12.78-10.675-21.593 0-7.699 3.188-14.634 8.284-19.619-5.096-4.986-8.284-11.921-8.284-19.619 0-10.902 6.407-20.24 15.61-24.673 2.721-27.793 26.149-49.507 54.658-49.507 28.363 0 51.699 21.5 54.618 49.093 9.626 4.265 16.37 13.871 16.37 25.087 0 7.698-3.188 14.633-8.285 19.619 5.096 4.985 8.285 11.921 8.285 19.619 0 8.813-4.223 16.569-10.684 21.593 5.863 4.517 10.699 10.3 13.918 17.051l0.038-0.138 62.098 114.522-0.352-0.222c13.465 23.156 21.306 49.986 21.306 78.702zM159.64-11.244c-18.815 0-34.548 13.323-38.342 31.018h76.683c-3.794-17.695-19.527-31.018-38.341-31.018zM214.933 47.241c0-6.492-5.281-11.771-11.771-11.771h-86.324c-6.492 0-11.771 5.28-11.771 11.771 0 6.491 5.28 11.771 11.771 11.771h86.324c6.491 0 11.771-5.28 11.771-11.771zM203.162 98.25c6.491 0 11.771-5.281 11.771-11.771 0-6.492-5.281-11.771-11.771-11.771h-86.324c-6.492 0-11.771 5.28-11.771 11.771 0 6.491 5.28 11.771 11.771 11.771h86.324zM268.51 255.064c-0.766-1.322-1.433-2.682-1.993-4.069l-58.964-108.751c-0.751-1.15-1.425-2.357-2.030-3.618-2.008-4.215-6.63-8.621-13.527-8.89l7.188 93.47c0.33 4.322-2.904 8.093-7.219 8.427-4.384 0.326-8.1-2.904-8.43-7.223l-7.288-94.769h-32.524l-7.289 94.769c-0.33 4.319-4.077 7.549-8.43 7.223-4.315-0.334-7.549-4.104-7.219-8.427l7.188-93.462c-6.867 0.279-11.488 4.667-13.496 8.867-0.468 0.973-0.981 1.916-1.533 2.82l-59.668 110.039c-0.521 1.238-1.127 2.456-1.817 3.64-11.135 19.163-17.021 40.905-17.021 62.877 0 69.233 56.328 125.562 125.562 125.562 69.233 0 125.562-56.329 125.562-125.562 0-21.979-5.894-43.74-17.052-62.923zM135.361 417.009c-30.149-7.483-54.941-27.991-68.015-56.267-1.816-3.932-0.1-8.595 3.832-10.415 1.066-0.494 2.192-0.724 3.288-0.724 2.966 0 5.809 1.686 7.134 4.556 10.898 23.577 32.41 41.38 57.546 47.614 4.208 1.046 6.767 5.299 5.725 9.507-1.050 4.208-5.334 6.768-9.51 5.729z" horiz-adv-x="320" />
<glyph unicode="&#xe637;" d="M454.512 269.33c6.131 6.131 6.131 16.063 0 22.194l-155.373 155.374c-5.886 5.886-16.308 5.886-22.194 0l-44.235-44.22c-16.293-16.301-18.424-41.759-5.059-60.543l-198.074-198.090c-33.659-33.643-33.643-88.409 0-122.083 16.308-16.3 37.981-25.275 61.018-25.275h0.015c23.052 0 44.726 8.982 61.018 25.283l198.106 198.083c8.047-5.733 17.473-8.752 27.298-8.752 12.537 0 24.339 4.897 33.245 13.795l44.235 44.234zM129.435 44.164c-10.377-10.376-24.156-16.086-38.839-16.086-14.653 0-28.448 5.71-38.824 16.078-21.412 21.428-21.412 56.282 0 77.694l86.661 86.661h155.357l-164.355-164.347zM367.944 245.619l-10.821 7.709c-6.239 4.438-14.791 3.725-20.201-1.694l-11.726-11.733h-155.373l89.419 89.419c5.426 5.411 6.146 13.963 1.686 20.202l-7.695 10.805c-4.445 6.254-3.755 14.73 1.671 20.148l33.137 33.13 133.179-133.179-33.137-33.13c-5.302-5.302-13.993-6.045-20.139-1.677zM502.763 130.779c-9.534 25.926-30.655 50.757-46.688 67.019-5.901 5.978-16.461 5.978-22.363-0.008-16.062-16.301-37.215-41.147-46.748-66.935-9.901-23.642-4.614-50.603 13.488-68.697 11.848-11.856 27.604-18.385 44.388-18.385 16.768 0 32.54 6.529 44.403 18.393 18.072 18.071 23.391 45.001 13.52 68.613zM467.050 84.36c-5.932-5.932-13.825-9.197-22.21-9.197s-16.263 3.265-22.194 9.189c-9.044 9.051-11.68 22.539-6.714 34.372 0.122 0.307 0.368 0.935 0.49 1.257 5.748 15.572 17.887 31.658 28.478 43.744 10.561-12.078 22.654-28.179 28.463-43.967 0.092-0.261 0.322-0.835 0.429-1.096 4.938-11.801 2.286-25.266-6.742-34.302z" />
<glyph unicode="&#xe638;" d="M461.095 429.099c-30.655 30.647-70.827 45.967-110.985 45.967-40.173 0-80.346-15.319-110.985-45.959-45.492-45.507-57.141-111.967-35.085-168.279l-180.725-180.717c-24.508-24.516-24.508-64.267 0-88.784 12.262-12.262 28.325-18.392 44.388-18.392 16.078 0 32.141 6.131 44.403 18.392l13.013 13.013h36.739c17.335 0 31.39 14.056 31.39 31.39v31.345h31.345c17.335 0 31.39 14.055 31.39 31.39v36.739l36.847 36.832c18.408-7.204 37.904-10.806 57.386-10.806 40.126 0 80.239 15.282 110.878 45.905 61.295 61.295 61.295 160.67 0.001 221.964zM438.901 229.338c-23.68-23.68-55.178-36.717-88.683-36.717-15.818 0-31.284 2.912-45.952 8.653-3.71 1.448-7.587 2.153-11.434 2.153-8.17 0-16.201-3.188-22.195-9.189l-36.847-36.839c-5.886-5.886-9.196-13.871-9.196-22.195v-36.739h-31.344c-17.335 0-31.39-14.048-31.39-31.39v-31.345h-36.74c-8.323 0-16.309-3.303-22.195-9.196l-13.013-13.006c-5.931-5.931-13.809-9.204-22.209-9.204-8.369 0-16.263 3.265-22.195 9.197-5.916 5.931-9.181 13.809-9.181 22.194 0 8.384 3.265 16.27 9.181 22.202l180.725 180.717c8.814 8.814 11.572 22.026 7.035 33.636-18.224 46.527-7.203 99.375 28.049 134.636 23.712 23.712 55.24 36.77 88.792 36.77 33.536 0 65.064-13.058 88.791-36.77 23.712-23.719 36.771-55.247 36.771-88.792 0-33.536-13.059-65.065-36.77-88.776zM359.582 395.386c-6.131 6.123-14.163 9.189-22.194 9.189-8.047 0-16.078-3.065-22.209-9.189l-11.097-11.096c-12.247-12.262-12.247-32.141 0-44.403l66.597-66.582c6.131-6.131 14.163-9.197 22.194-9.197s16.063 3.065 22.194 9.197l11.097 11.097c12.262 12.262 12.262 32.134 0 44.388l-66.582 66.596zM415.067 295.498l-11.096-11.097c-2.959-2.966-6.897-4.598-11.097-4.598-4.199 0-8.139 1.632-11.097 4.598l-66.597 66.582c-6.116 6.123-6.116 16.086 0 22.202l11.097 11.097c2.973 2.966 6.912 4.598 11.112 4.598 4.184 0 8.124-1.632 11.097-4.598l66.581-66.59c6.116-6.116 6.116-16.078 0-22.194z" />
<glyph unicode="&#xe639;" d="M389.409 208.305c-0.092 0-0.177-0.016-0.268-0.016v0.016h-117.461v15.964c0 17.159 13.963 31.122 31.13 31.122h101.283v0.122h8.713c34.701 0 62.934 28.11 62.934 62.919 0 34.478-28.049 62.52-62.52 62.52h-204.566c-17.167 0-31.13 13.963-31.13 31.13v47.346c0 8.675-7.028 15.695-15.695 15.695-8.668 0-15.695-7.020-15.695-15.695v-47.346c0-34.471 28.049-62.52 62.52-62.52h204.566c17.167 0 31.13-13.963 31.13-31.39 0-17.244-14.147-31.268-31.543-31.268h-72.1v-0.122h-37.897c-34.471 0-62.52-28.042-62.52-62.512v-15.964h-116.412c-0.429 0-0.851 0.061-1.287 0.061-65.011 0-117.714-52.711-117.714-117.714s52.703-117.715 117.714-117.715c38.441 0 72.475 18.516 93.956 47.024h78.86c21.481-28.539 55.538-47.086 94.003-47.086 65.010 0 117.714 52.711 117.714 117.714s-52.705 117.715-117.715 117.715zM389.409 4.267c-27.267 0-52.389 12.599-68.92 34.571-5.931 7.878-15.22 12.515-25.083 12.515h-78.86c-9.855 0-19.136-4.629-25.068-12.508-16.531-21.933-41.645-34.517-68.889-34.517-47.6 0-86.324 38.725-86.324 86.324 0 47.338 38.303 85.902 85.542 86.324 0.621-0.038 1.279-0.061 2.069-0.061l265.263-0.016c0.238 0 0.498 0.008 0.759 0.016 47.377-0.268 85.833-38.893 85.833-86.324 0.002-47.599-38.723-86.324-86.322-86.324zM381.531 106.125c0-8.668-7.027-15.695-15.695-15.695s-15.695 7.027-15.695 15.695c0 8.668 7.027 15.695 15.695 15.695 8.668 0 15.695-7.027 15.695-15.695zM365.836 75.126c-8.668 0-15.695-7.035-15.695-15.695 0-8.676 7.028-15.695 15.695-15.695 8.668 0 15.695 7.020 15.695 15.695 0 8.659-7.028 15.695-15.695 15.695zM428.616 121.82c0-8.668-7.027-15.695-15.695-15.695s-15.695 7.027-15.695 15.695c0 8.668 7.027 15.695 15.695 15.695 8.668 0 15.695-7.027 15.695-15.695zM428.616 75.126c0-8.668-7.027-15.695-15.695-15.695s-15.695 7.027-15.695 15.695c0 8.668 7.027 15.695 15.695 15.695 8.668 0 15.695-7.027 15.695-15.695zM281.941 96.208l-15.848-15.848c-3.065-3.066-3.065-8.032 0-11.097 1.533-1.533 3.541-2.299 5.548-2.299 2.008 0 4.016 0.767 5.549 2.299l15.848 15.848c3.065 3.066 3.065 8.032 0 11.097s-8.031 3.065-11.097 0zM234.963 96.208l-15.848-15.848c-3.066-3.066-3.066-8.032 0-11.097 1.533-1.533 3.54-2.299 5.548-2.299s4.016 0.767 5.548 2.299l15.849 15.848c3.065 3.066 3.065 8.032 0 11.097-3.066 3.065-8.032 3.065-11.097 0zM153.951 106.317h-15.665v15.665c0 8.675-7.028 15.695-15.695 15.695-8.668 0-15.695-7.020-15.695-15.695v-15.665h-15.665c-8.668 0-15.695-7.020-15.695-15.695 0-8.66 7.028-15.695 15.695-15.695h15.665v-15.665c0-8.668 7.027-15.695 15.695-15.695s15.695 7.028 15.695 15.695v15.665h15.665c8.668 0 15.695 7.035 15.695 15.695 0 8.675-7.028 15.695-15.695 15.695z" />
<glyph unicode="&#xe63a;" d="M507.092 193.208v35.314h-0.092c0.268 9.303-4.008 22.761-15.626 42.503-18.462 31.36-62.781 109.928-62.781 109.928-15.695 23.482-31.39 47.086-70.628 47.086h-203.984c-39.238 0-54.933-23.604-70.628-47.086 0 0-44.319-78.568-62.781-109.928-11.235-19.083-15.657-32.341-15.687-41.599h-0.008v-162.378c0-26.010 21.082-47.086 47.086-47.086h408.075c26.003 0 47.086 21.076 47.086 47.086v125.562c-0.001 0.199-0.032 0.398-0.032 0.598zM47.625 255.099c17.458 29.673 56.964 99.613 62.482 109.392 15.304 22.853 22.608 32.156 43.874 32.156h203.984c21.266 0 28.57-9.303 43.875-32.156 5.517-9.779 45.024-79.718 62.482-109.392 3.84-6.514 6.392-11.603 8.078-15.481-0.544 0-1.119 0-1.716 0-1.801 0-3.579 0.016-5.303 0.031-1.839 0.031-3.617 0.046-5.334 0.046h-117.723c-8.882 0-14.002-3.004-15.757-7.909l-23.543-62.781c-4.46-9.15-9.855-15.695-23.512-15.695h-47.086c-16.423 0-20.515 7.848-23.573 15.695l-23.543 62.781c-3.311 7.909-12.323 7.909-15.665 7.909h-117.683c-1.732 0-3.533-0.015-5.395-0.046-1.724-0.015-3.502-0.031-5.303-0.031-0.597 0-1.172 0-1.716 0 1.685 3.879 4.237 8.967 8.077 15.481zM475.733 192.61v-125.562c0-8.66-7.043-15.695-15.695-15.695h-408.076c-8.652 0-15.695 7.035-15.695 15.695v141.196h15.128c0.191 0.015 0.375 0.061 0.567 0.061h108.625l19.021-50.703c9.227-23.681 26.992-35.682 52.818-35.682h47.086c23.551 0 40.955 11.22 51.73 33.337l0.651 1.334 0.521 1.395 18.876 50.32h108.694c0.023 0 0.038 0 0.053 0h15.695v-15.696zM161.829 333.805h188.311c8.668 0 15.695 7.020 15.695 15.695 0 8.66-7.028 15.695-15.695 15.695h-188.311c-8.668 0-15.695-7.035-15.695-15.695 0-8.675 7.027-15.695 15.695-15.695zM130.438 271.024h251.092c8.668 0 15.695 7.020 15.695 15.695 0 8.66-7.028 15.695-15.695 15.695h-251.092c-8.668 0-15.695-7.035-15.695-15.695 0-8.675 7.028-15.695 15.695-15.695z" />
<glyph unicode="&#xe63b;" d="M474.252 183.294c-2.238 8.369-10.806 13.332-19.228 11.093l-90.247-24.21-93.375 53.868 93.244 53.799 90.339-24.233c1.364-0.368 2.736-0.541 4.077-0.541 6.928 0 13.273 4.621 15.151 11.634 2.245 8.372-2.721 16.978-11.089 19.224l-60.029 16.101 48.771 28.138c7.51 4.333 10.086 13.933 5.755 21.439-4.329 7.51-13.948 10.089-21.435 5.752l-49.063-28.306 16.078 59.918c2.246 8.369-2.72 16.979-11.089 19.224-8.407 2.238-16.983-2.724-19.228-11.093l-24.21-90.236-92.999-53.657v107.336l66.161 66.16c6.131 6.127 6.131 16.067 0 22.195-6.131 6.131-16.063 6.131-22.194 0l-43.967-43.963v56.377c0 8.668-7.028 15.695-15.695 15.695-8.668 0-15.695-7.028-15.695-15.695v-55.841l-43.836 43.84c-6.131 6.131-16.063 6.131-22.194 0-6.131-6.127-6.131-16.063 0-22.194l66.030-66.038v-107.846l-92.96 53.634-24.209 90.236c-2.238 8.369-10.822 13.331-19.228 11.093-8.369-2.245-13.335-10.856-11.089-19.224l16.070-59.918-49.055 28.306c-7.502 4.337-17.105 1.759-21.435-5.752-4.33-7.506-1.755-17.105 5.755-21.439l48.771-28.138-60.029-16.102c-8.369-2.246-13.335-10.852-11.089-19.224 1.878-7.013 8.223-11.634 15.151-11.634 1.341 0 2.713 0.177 4.077 0.541l90.34 24.233 93.244-53.799-93.367-53.868-90.254 24.21c-8.392 2.238-16.983-2.725-19.228-11.093-2.246-8.373 2.72-16.978 11.089-19.224l59.938-16.078-48.633-28.061c-7.511-4.333-10.086-13.933-5.755-21.439 2.904-5.039 8.184-7.855 13.611-7.855 2.659 0 5.357 0.678 7.824 2.104l49.033 28.29-16.097-60.005c-2.245-8.369 2.721-16.978 11.089-19.224 1.364-0.363 2.736-0.54 4.077-0.54 6.928 0 13.273 4.621 15.151 11.633l24.233 90.32 92.975 53.645v-107.368l-66.030-66.030c-6.131-6.127-6.131-16.066 0-22.194 6.13-6.131 16.062-6.131 22.194 0l43.836 43.833v-56.416c0-8.668 7.027-15.695 15.695-15.695s15.695 7.028 15.695 15.695v56.14l43.967-43.97c3.065-3.066 7.081-4.599 11.096-4.599 4.016 0 8.032 1.533 11.097 4.599 6.131 6.127 6.131 16.062 0 22.194l-66.161 66.168v107.667l93.014-53.669 24.232-90.32c1.878-7.012 8.223-11.633 15.151-11.633 1.341 0 2.713 0.177 4.077 0.54 8.369 2.246 13.335 10.856 11.089 19.224l-16.101 60.003 49.040-28.29c2.467-1.426 5.165-2.104 7.825-2.104 5.426 0 10.706 2.816 13.61 7.855 4.33 7.506 1.756 17.105-5.755 21.439l-48.633 28.061 59.938 16.078c8.37 2.246 13.336 10.852 11.091 19.224z" horiz-adv-x="480" />
<glyph unicode="&#xe63c;" d="M224 475.1c-121.362 0-219.733-45.675-219.733-102.018v-297.765h0.031c0-0.122-0.031-0.261-0.031-0.399 0-56.343 98.371-102.018 219.733-102.018 121.347 0 219.733 45.675 219.733 102.019 0 0.138-0.031 0.276-0.031 0.399h0.031v297.764c0 56.343-98.386 102.018-219.733 102.018zM224 443.71c114.97 0 188.342-41.828 188.342-70.628h-0.314v-2.054c-3.288-28.693-75.71-68.575-188.029-68.575-114.97 0-188.342 41.828-188.342 70.628s73.373 70.629 188.343 70.629zM412.342 153.379c-29.604-29.705-98.861-54.903-188.342-54.903-89.788 0-159.228 25.367-188.656 55.209v72.913c38.371-29.766 108.486-49.706 188.656-49.706 79.94 0 149.894 19.818 188.342 49.461v-72.974zM412.342 247.489c-29.604-29.72-98.861-54.903-188.342-54.903-89.788 0-159.228 25.367-188.656 55.209v72.975c38.371-29.766 108.486-49.707 188.656-49.707 79.94 0 149.894 19.818 188.342 49.461v-73.035zM412.342 74.918c0-28.784-73.372-70.628-188.342-70.628-114.894 0-188.235 41.783-188.335 70.583h-0.322v57.615c38.372-29.766 108.487-49.706 188.657-49.706 79.94 0 149.894 19.818 188.342 49.461v-4.767c-0.108 0.092-0.199 0.184-0.314 0.261v-52.42h0.253c0.016-0.122 0.061-0.261 0.061-0.399z" horiz-adv-x="448" />
<glyph unicode="&#xe63d;" d="M506.878 340.764c0 1.656 0.092 2.744 0.245 3.51v5.288c0 69.341-56.213 125.562-125.562 125.562h-11.265c-0.506-0.031-0.958-0.061-1.595-0.061-22.446 0-40.050-11.694-53.147-23.267-5.725 1.502-11.549 2.728-17.427 3.786-5.71 2.467-12.001 3.847-18.615 3.847h-47.086c-6.614 0-12.905-1.38-18.615-3.847-4-0.72-7.97-1.548-11.902-2.468-12.936 11.128-30.041 21.949-51.63 21.949-0.636 0-1.096 0.031-1.594 0.061h-18.247c-69.348-0.001-125.561-56.222-125.561-125.562v-14.898c1.939-20.294 13.227-36.25 24.087-48.282-1.824-6.637-3.349-13.412-4.59-20.278-2.437-5.686-3.801-11.955-3.801-18.531v-22.363c0-0.414-0.031-0.812-0.031-1.211 0-0.414 0.031-0.812 0.031-1.211v-22.301c0-6.576 1.349-12.814 3.778-18.5 0.522-2.882 1.081-5.763 1.709-8.614-9.886-11.603-19.42-26.47-21.182-44.939v-29.996c0-69.356 56.213-125.562 125.562-125.562h18.132c0.529 0.031 1.027 0.061 1.709 0.061 21.597 0 38.702 10.821 51.63 21.933 4.001-0.935 8.032-1.763 12.109-2.498 5.656-2.407 11.871-3.74 18.408-3.74h21.121c0.812-0.015 1.61-0.061 2.422-0.061s1.61 0.046 2.422 0.061h21.121c6.537 0 12.752 1.333 18.408 3.74 5.955 1.073 11.84 2.314 17.627 3.816 13.097-11.572 30.701-23.252 53.155-23.252 0.682 0 1.18-0.031 1.709-0.061h11.151c69.349 0 125.562 56.205 125.562 125.562v20.386c-0.153 0.766-0.245 1.854-0.245 3.509 0 21.045-10.277 37.813-21.090 50.611 0.658 3.005 1.249 6.009 1.8 9.044 2.43 5.686 3.779 11.924 3.779 18.5v22.301c0 0.399 0.031 0.797 0.031 1.211 0 0.399-0.031 0.797-0.031 1.211v22.363c0 6.576-1.357 12.844-3.801 18.531-1.264 7.005-2.827 13.902-4.698 20.677 11.807 13.181 24.007 31.053 24.007 53.983zM368.702 459.367c0.706 0 1.265 0.031 1.978 0.061h10.882c60.581 0 109.866-49.292 109.866-109.866v-4.138c-0.169-1.38-0.245-2.897-0.245-4.66 0-14.071-6.292-26.133-13.948-36.173-24.094 66.138-77.012 118.373-143.54 141.641 9.824 7.264 21.473 13.135 35.007 13.135zM258.391 20.024h-4.844c-10.001 0.108-19.833 0.92-29.444 2.437-4.414 2.789-7.372 7.663-7.372 13.258v31.39c0 8.645 7.043 15.695 15.695 15.695h47.086c8.652 0 15.695-7.050 15.695-15.695v-31.39c0-5.595-2.959-10.469-7.373-13.258-9.61-1.518-19.442-2.33-29.443-2.437zM255.969 428.038c10.898 0 21.596-0.889 32.034-2.544 4.323-2.79 7.204-7.633 7.204-13.151v-31.39c0-8.66-7.043-15.695-15.695-15.695h-47.086c-8.652 0-15.695 7.035-15.695 15.695v31.39c0 5.518 2.882 10.361 7.204 13.151 10.438 1.654 21.136 2.544 32.034 2.544zM457.493 192.089c-2.79-4.368-7.648-7.296-13.212-7.296h-31.39c-8.652 0-15.695 7.035-15.695 15.695v47.086c0 8.645 7.043 15.695 15.695 15.695h31.39c5.548 0 10.407-2.912 13.197-7.28 1.595-10.039 2.437-20.309 2.499-30.777v-2.422c-0.062-10.439-0.905-20.693-2.484-30.701zM303.224 107.743c-6.974 4.077-15.052 6.452-23.712 6.452h-47.086c-8.66 0-16.737-2.375-23.712-6.452-31.283 12.767-56.267 37.767-69.019 69.049 4.062 6.974 6.437 15.052 6.437 23.696v47.086c0 8.629-2.368 16.707-6.422 23.665 12.76 31.299 37.767 56.282 69.065 69.035 6.958-4.046 15.021-6.407 23.65-6.407h47.086c8.629 0 16.691 2.361 23.65 6.407 31.298-12.752 56.305-37.736 69.064-69.035-4.054-6.958-6.422-15.036-6.422-23.665v-47.086c0-8.644 2.368-16.722 6.437-23.696-12.75-31.283-37.733-56.282-69.016-69.049zM54.445 192.089c-1.579 10.009-2.422 20.262-2.483 30.701v2.422c0.061 10.469 0.904 20.738 2.499 30.777 2.789 4.368 7.648 7.28 13.197 7.28h31.39c8.652 0 15.695-7.050 15.695-15.695v-47.086c0-8.66-7.043-15.695-15.695-15.695h-31.39c-5.564 0-10.423 2.928-13.213 7.296zM444.281 294.659h-31.39c-5.472 0-10.706-0.981-15.595-2.697-15.435 31.988-41.391 57.937-73.41 73.356 1.724 4.89 2.713 10.147 2.713 15.634v31.39c0 1.058-0.092 2.1-0.161 3.142 55.898-20.646 100.356-65.095 121.001-120.994-1.043 0.077-2.093 0.169-3.158 0.169zM188.062 365.303c-32.035-15.404-58.022-41.338-73.465-73.326-4.873 1.701-10.093 2.682-15.549 2.682h-31.39c-1.065 0-2.108-0.092-3.157-0.169 20.645 55.9 65.102 100.348 121.001 120.995-0.069-1.042-0.161-2.084-0.161-3.142v-31.39c0-5.504 0.989-10.745 2.721-15.65zM67.658 153.402h31.39c5.464 0 10.691 0.981 15.573 2.682 15.419-32.034 41.406-57.953 73.417-73.403-1.716-4.874-2.697-10.101-2.697-15.573v-31.39c0-1.088 0.092-2.146 0.161-3.203-55.922 20.647-100.394 65.126-121.032 121.040 1.057-0.061 2.115-0.153 3.188-0.153zM323.931 82.621c32.057 15.419 58.037 41.384 73.472 73.433 4.858-1.686 10.054-2.652 15.488-2.652h31.39c1.073 0 2.131 0.092 3.188 0.153-20.638-55.914-65.11-100.394-121.032-121.040 0.069 1.058 0.161 2.115 0.161 3.203v31.39c0 5.443-0.966 10.639-2.667 15.513zM20.572 335.46v14.101c0 60.574 49.285 109.866 109.866 109.866h17.864c0.597-0.031 1.203-0.061 1.977-0.061 12.522 0 23.42-5.027 32.762-11.511-68.911-22.438-123.874-75.762-148.475-143.678-6.828 8.875-12.676 19.313-13.994 31.283zM150.279-11.367c-0.782 0-1.402-0.031-2.107-0.061h-17.734c-60.581 0-109.866 49.277-109.866 109.866v29.184c1.088 9.871 5.273 18.699 10.53 26.455 22.6-72.775 79.579-130.375 151.925-153.933-9.335-6.484-20.217-11.511-32.748-11.511zM491.183 122.334c0-1.763 0.076-3.28 0.245-4.675v-19.22c0-60.589-49.285-109.866-109.866-109.866h-10.752c-0.637 0.031-1.28 0.061-2.108 0.061-13.549 0-25.206 5.855-35.015 13.135 69.916 24.448 124.796 80.898 146.997 151.833 5.992-8.998 10.499-19.42 10.499-31.268z" />
<glyph unicode="&#xe63e;" d="M412.967 286.489v4.752c0 71.088-57.83 128.918-128.919 128.918h-56.067c-71.088 0-128.918-57.83-128.918-128.918v-4.752c-52.373-2.728-94.171-46.058-94.171-99.091v-60.19c0-54.78 44.572-99.367 99.359-99.367h10.507c8.668 0 15.695 7.035 15.695 15.695v211.823c19.251 0 30.18 10.101 31.268 28.325h0.092v1.272c0.015 0.567 0.122 1.088 0.122 1.671h-0.122v4.614c0 36.464 29.665 66.137 66.137 66.137h56.067c36.472 0 66.138-29.673 66.138-66.137v-4.982h0.031c0.138-19.88 11.25-30.854 31.36-30.884v-211.839c0-8.661 7.028-15.695 15.695-15.695h10.506c54.788 0 99.36 44.587 99.36 99.367v60.19c0.001 53.018-41.781 96.348-94.14 99.091zM99.063 59.431c-35.062 2.667-62.781 32.049-62.781 67.777v60.19c0 35.728 27.719 65.111 62.781 67.777v-195.744zM365.851 286.627v4.614c0 45.124-36.71 81.832-81.833 81.832h-56.067c-45.124 0-81.833-36.709-81.833-81.832v-6.944c-0.606-9.548-5.012-13.243-15.665-13.243v0 20.186c0 53.875 43.667 97.528 97.528 97.528h56.067c53.86 0 97.528-43.652 97.528-97.528v-19.88c0-0.108-0.031-0.199-0.031-0.307-11.433 0.033-15.694 4.263-15.694 15.574zM475.717 127.208c0-35.729-27.72-65.111-62.781-67.777v195.745c35.061-2.667 62.781-32.050 62.781-67.777v-60.191z" />
</font>
</defs>
</svg>
